<?xml version="1.0" standalone="no"?>
<!DOCTYPE svg PUBLIC "-//W3C//DTD SVG 1.1//EN" "http://www.w3.org/Graphics/SVG/1.1/DTD/svg11.dtd" >
<svg xmlns="http://www.w3.org/2000/svg">
<defs>
  <font id="scwx-icons" horiz-adv-x="760">
    <font-face font-family="scwx-icons"
      units-per-em="300" ascent="300"
      descent="0" />
    <missing-glyph horiz-adv-x="0" />
    <glyph glyph-name="wait"
      unicode="&#xF101;"
      horiz-adv-x="300" d="M87.375 162.5L37.5 112.5L87.375 62.5V100H175V125H87.375V162.5zM262.5 187.5L212.625 237.5V200H125V175H212.625V137.5L262.5 187.5z" />
    <glyph glyph-name="upgrade-available"
      unicode="&#xF102;"
      horiz-adv-x="300" d="M136.2175 220.512875C136.2175 209.892 127.6075 201.282 116.987125 201.282C106.366375 201.282 97.756375 209.892 97.756375 220.512875C97.756375 231.133625 106.366375 239.743625 116.987125 239.743625C127.6075 239.743625 136.2175 231.133625 136.2175 220.512875zM208.57875 188.461125L255.3 141.6175L241.9125 127.91L218.195 151.43L218.195 53.84625H198.96375L198.96375 151.43L175.24625 128.0325L161.85875 141.6175L208.57875 188.461125zM62.5 220.512875C62.5 250.60525 86.89475 275 116.987125 275C147.08 275 171.47375 250.60525 171.47375 220.512875C171.47375 193.926375 152.4325 171.7875 127.24375 166.99V107.06125C145.29625 102.4925 158.65375 86.14 158.65375 66.66625C158.65375 43.655 139.99875 25 116.987125 25C93.975375 25 75.3205 43.655 75.3205 66.66625C75.3205 86.5975 89.314375 103.26 108.012625 107.365V166.76125C82.190375 171.04 62.5 193.47725 62.5 220.512875zM116.987125 255.76925C97.515625 255.76925 81.73075 239.984375 81.73075 220.512875C81.73075 201.04125 97.515625 185.256375 116.987125 185.256375C136.45875 185.256375 152.24375 201.04125 152.24375 220.512875C152.24375 239.984375 136.45875 255.76925 116.987125 255.76925zM116.987125 89.1025C104.596125 89.1025 94.55125 79.0575 94.55125 66.66625C94.55125 54.27625 104.596125 44.23125 116.987125 44.23125C129.37875 44.23125 139.4225 54.27625 139.4225 66.66625C139.4225 79.0575 129.37875 89.1025 116.987125 89.1025zM188.78125 66.66625C188.78125 77.2875 197.39125 85.8975 208.0125 85.8975C218.63375 85.8975 227.24375 77.2875 227.24375 66.66625C227.24375 56.04625 218.63375 47.43625 208.0125 47.43625C197.39125 47.43625 188.78125 56.04625 188.78125 66.66625z" />
    <glyph glyph-name="triage-queue"
      unicode="&#xF103;"
      horiz-adv-x="300" d="M15.625 91.5175V120.08875H41.8155V91.5175H15.625zM15.625 148.66125V177.232125H41.8155V148.66125H15.625zM15.625 205.803625V234.375H41.8155V205.803625H15.625zM68.006 91.5175V120.08875H120.386875V91.5175H68.006zM68.006 148.66125V177.232125H238.24375V148.66125H68.006zM68.006 205.803625V234.375H238.24375V205.803625H68.006zM198.30375 34.375L142.64875 95.08875L161.31 115.44625L198.30375 75.08875L272.29125 155.80375L290.625 135.08875L198.30375 34.375z" />
    <glyph glyph-name="ti-icon"
      unicode="&#xF104;"
      horiz-adv-x="300" d="M150 25.3125C120.833375 32.605 96.875 49.53125 78.125 76.09375C59.375 102.65625 50 131.77125 50 163.4375V237.81275L150 275.31275L250 237.81275V163.4375C250 131.77125 240.625 102.65625 221.875 76.09375C203.125 49.53125 179.16625 32.605 150 25.3125zM150 44.6875C173.95875 52.605 193.49 67.5525 208.59375 89.53125C223.6975 111.51125 231.25 136.14625 231.25 163.4375V224.68775L150 255.31275L68.75 224.68775V163.4375C68.75 136.14625 76.302125 111.51125 91.40625 89.53125C106.510375 67.5525 126.04125 52.605 150 44.6875zM112.5 100V200H165L167.33375 188.23525H200V129.41125H159.16625L156.83375 141.17625H124.166625V100H112.5z" />
    <glyph glyph-name="tenant-settings"
      unicode="&#xF105;"
      horiz-adv-x="300" d="M137.5 275V212.5H262.5V162.5H237.5V187.5H137.5V50H25V275L137.5 275zM50 75H112.5V100H50V75zM50 125H112.5V150H50V125zM50 175H112.5V200H50V175zM50 225H112.5V250H50V225zM260.28875 81.38C260.55625 83.33375 260.69 85.35125 260.69 87.5C260.69 89.58375 260.55625 91.66625 260.22125 93.62L273.80875 103.90625C275.01375 104.8175 275.3475 106.575 274.6112500000001 107.8775L261.76125 129.4925C260.9575 130.925 259.285 131.38 257.8125 130.925L241.8162500000001 124.675C238.46875 127.14875 234.92125 129.23125 230.9725 130.79375L228.56375 147.33125C228.29625 148.89375 226.9575 150 225.35125 150H199.64875C198.0425 150 196.77125 148.89375 196.50375 147.33125L194.09375 130.79375C190.145 129.23125 186.53125 127.08375 183.25125 124.675L167.255 130.925C165.7825 131.445 164.10875 130.925 163.30625 129.4925L150.5225 107.8775C149.71875 106.51 149.98625 104.8175 151.325 103.90625L164.9125 93.62C164.5775 91.66625 164.31 89.51875 164.31 87.5C164.31 85.48125 164.44375 83.33375 164.77875 81.38L151.19125 71.09375C149.98625 70.1825 149.6525 68.425 150.38875 67.1225L163.23875 45.5075C164.0425 44.075 165.715 43.62 167.1875 44.075L183.18375 50.325C186.53125 47.85125 190.07875 45.76875 194.0275 44.20625L196.43625 27.66875C196.77125 26.10625 198.0425 25 199.64875 25H225.35125C226.9575 25 228.29625 26.10625 228.49625 27.66875L230.90625 44.20625C234.855 45.76875 238.46875 47.85125 241.74875 50.325L257.745 44.075C259.2175000000001 43.555 260.89125 44.075 261.69375 45.5075L274.545 67.1225C275.3475 68.555 275.01375 70.1825 273.74125 71.09375L260.28875 81.38zM212.5 64.0625C199.2475 64.0625 188.405 74.61 188.405 87.5C188.405 100.39 199.2475 110.9375 212.5 110.9375C225.7525 110.9375 236.5950000000001 100.39 236.5950000000001 87.5C236.5950000000001 74.61 225.7525 64.0625 212.5 64.0625z" />
    <glyph glyph-name="tactics"
      unicode="&#xF106;"
      horiz-adv-x="283.33333333333337" d="M207.0833333333334 4.5083333333333L190.8166666666667 20.7733333333333L217.0666666666667 47.44L190.8166666666667 73.69L207.0833333333334 90.2933333333333L233.7500000000001 63.6266666666667L260 90.2933333333333L276.6016666666667 73.69L249.9350000000001 47.44L276.6016666666667 20.7733333333333L260 4.5083333333333L233.7500000000001 30.7583333333333L207.0833333333334 4.5083333333333zM45.0136666666667 27.825C51.041 27.825 56.1565 29.9216666666667 60.3603333333333 34.1133333333333C64.5645 38.305 66.6666666666667 43.4416666666667 66.6666666666667 49.5216666666667C66.6666666666667 55.55 64.5706666666667 60.665 60.3788333333333 64.8683333333333C56.1868333333333 69.0733333333333 51.0771666666667 71.175 45.05 71.175C38.9695 71.175 33.8271666666667 69.0783333333333 29.623 64.8866666666667C25.4188333333333 60.695 23.3166666666667 55.585 23.3166666666667 49.5583333333333C23.3166666666667 43.4783333333334 25.4126666666667 38.335 29.6045 34.1316666666667C33.7965 29.9266666666667 38.9328333333333 27.825 45.0136666666667 27.825zM45.1058333333333 4.5083333333333C32.5138333333333 4.5083333333333 21.8483333333333 8.8816666666667 13.1091666666667 17.63C4.3697166666667 26.3766666666666 0 37.0183333333333 0 49.5516666666667C0 62.0333333333333 4.3725 72.6433333333333 13.1175 81.3833333333333C21.8628333333333 90.1216666666666 32.5008333333333 94.4916666666667 45.0316666666667 94.4916666666667C55.1813333333333 94.4916666666667 64.2653333333333 91.4466666666667 72.2833333333333 85.3566666666667C80.3013333333334 79.2666666666667 85.646 71.3183333333333 88.3171666666667 61.51C100.753 63.1566666666667 111.0841666666667 68.6616666666667 119.3108333333333 78.025C127.5371666666667 87.39 131.6503333333334 98.3916666666667 131.6503333333334 111.03V173.7381666666667C131.6503333333334 195.4371666666667 139.2731666666667 213.9228333333333 154.5186666666667 229.1953333333334C169.765 244.4675 188.2366666666667 252.1036666666667 209.935 252.1036666666667H231.6983333333334L200.4 283.3215L217.0833333333334 300.0040690166667L276.6016666666667 240.4048333333334L217.0833333333334 180.8861666666667L200.4 197.0715L231.6666666666667 228.7865H209.935C194.635 228.7865 181.6483333333334 223.437 170.9766666666667 212.7378333333333C160.3035 202.0383333333333 154.9671666666667 189.0385 154.9671666666667 173.7381666666667V111.03C154.9671666666667 92.0033333333333 148.589 75.5516666666667 135.8328333333333 61.68C123.0765 47.8066666666666 107.2966666666667 39.9616666666666 88.4933333333333 38.1466666666667C85.9933333333333 28.1683333333334 80.694 20.0666666666667 72.5955 13.8433333333333C64.4968333333333 7.62 55.3336666666667 4.5083333333333 45.1058333333333 4.5083333333333zM16.2658333333333 195.3253333333333L0 211.5911666666667L26.25 238.2578333333334L0 264.5078333333334L16.2658333333333 281.1098333333333L42.9325 254.4431666666667L69.1825 281.1098333333333L85.7846666666667 264.5078333333334L59.118 238.2578333333334L85.7846666666667 211.5911666666667L69.1825 195.3253333333333L42.9325 221.5753333333333L16.2658333333333 195.3253333333333z" />
    <glyph glyph-name="switch"
      unicode="&#xF107;"
      horiz-adv-x="300" d="M87.375 162.5L37.5 112.5L87.375 62.5V100H175V125H87.375V162.5zM262.5 187.5L212.625 237.5V200H125V175H212.625V137.5L262.5 187.5z" />
    <glyph glyph-name="sw_logo_square"
      unicode="&#xF108;"
      horiz-adv-x="300" d="M0 300H300V0H0V300zM79.3869140625 103.2029296875C67.0740234375 103.2029296875 57.41431640625 109.5369140625 50.2578515625 121.4197265625L34.285078125 108.5138671875C44.59798828125 94.8087890625 58.7748046875 85.714453125 79.550390625 85.714453125C104.6794921875 85.714453125 119.9994140625 104.0578125 119.9994140625 123.25546875C119.9994140625 146.5734375 101.8494140625 153.94453125 85.2099609375 159.7740234375C71.2376953125 164.5669921875 58.4211328125 168.5044921875 58.4211328125 180.5138671875C58.4211328125 190.323046875 66.4078125 197.8201171875 78.720703125 197.8201171875C89.605078125 197.8201171875 97.768359375 193.1958984375 103.210546875 184.4513671875L118.0265625 195.7740234375C108.706640625 206.914453125 97.2240234375 214.285546875 78.74765625 214.285546875C56.28509765625 214.285546875 39.80888671875 199.1935546875 39.80888671875 180.1634765625C39.80888671875 157.1958984375 57.6183984375 150.343359375 74.0947265625 144.8501953125C88.0400390625 140.1697265625 101.36015625 136.1197265625 101.36015625 123.25546875C101.36015625 112.1431640625 92.869921875 103.2029296875 79.3869140625 103.2029296875zM227.56171875 110.499609375L205.8814453125 171.2326171875H197.4181640625H188.0484375L166.05234375 110.499609375L146.8998046875 171.2326171875L128.572265625 171.4283203125L156.448828125 85.714453125H174.103125L196.8275390625 146.769140625L197.4181640625 145.16015625L219.139453125 85.714453125H223.1654296875H236.478515625L249.420703125 123.591796875L258.474609375 150.0837890625L265.7150390625 171.2326171875H250.7806640625H247.3869140625L227.56171875 110.499609375z" />
    <glyph glyph-name="status_dot-_2tone"
      unicode="&#xF109;"
      horiz-adv-x="300" d="M150 25C219.035 25 275 80.965 275 150C275 219.035625 219.035 275 150 275C80.964375 275 25 219.035625 25 150C25 80.965 80.964375 25 150 25zM237.5 150C237.5 101.675 198.325 62.5 150 62.5C101.675125 62.5 62.5 101.675 62.5 150C62.5 198.324875 101.675125 237.5 150 237.5C198.325 237.5 237.5 198.324875 237.5 150zM150 62.5C198.325 62.5 237.5 101.675 237.5 150C237.5 198.324875 198.325 237.5 150 237.5C101.675125 237.5 62.5 198.324875 62.5 150C62.5 101.675 101.675125 62.5 150 62.5z" />
    <glyph glyph-name="start"
      unicode="&#xF10A;"
      horiz-adv-x="235.7142857142857" d="M42.8571428571429 222L155.7857142857143 150L42.8571428571429 78V222zM0 300V0L235.7142857142857 150L0 300z" />
    <glyph glyph-name="source"
      unicode="&#xF10B;"
      horiz-adv-x="300" d="M134.5325 281.093C125.98875 272.55025 125.98875 258.69975 134.5325 250.157125C143.075 241.614375 156.925 241.614375 165.4675 250.157125C174.01125 258.69975 174.01125 272.55025 165.4675 281.093C156.925 289.635675 143.075 289.635675 134.5325 281.093zM31.407 18.9075C22.864375 27.45 22.864375 41.3 31.407 49.8425C39.94975 58.38625 53.80025 58.38625 62.342875 49.8425C70.885625 41.3 70.885625 27.45 62.342875 18.9075C53.80025 10.36375 39.94975 10.36375 31.407 18.9075zM237.6575 18.9075C229.11375 27.45 229.11375 41.3 237.6575 49.8425C246.2 58.38625 260.05 58.38625 268.5925000000001 49.8425C277.13625 41.3 277.13625 27.45 268.5925000000001 18.9075C260.05 10.36375 246.2 10.36375 237.6575 18.9075zM66.12 178.039375C66.942875 180.464125 68.72125 182.375 70.923 183.443125L145.8075 220.88525C148.44625 222.204875 151.55375 222.204875 154.1925 220.88525L229.0775 183.443125C231.2787500000001 182.374875 233.0575 180.463625 233.88 178.038375C234.19625 177.108 234.37125 176.102125 234.375 175.039L234.375 175V174.9925V87.5C234.375 83.94875 232.36875 80.7025 229.1925 79.115L154.1925 41.615C151.55375 40.295 148.44625 40.295 145.8075 41.615L70.807375 79.115C67.63125 80.7025 65.625 83.94875 65.625 87.5V175C65.625 176.077875 65.800375 177.097375 66.12 178.039375zM84.375 159.83125V93.29375L140.625 65.16875V131.70625L84.375 159.83125zM215.625 93.29375L159.375 65.16875V131.70625L215.625 159.83125V93.29375zM204.03625 175L150 202.018375L95.963125 175L150 147.98125L204.03625 175z" />
    <glyph glyph-name="simplified-playbook"
      unicode="&#xF10C;"
      horiz-adv-x="300" d="M169.7375 259.672875L148.735 271.761125C144.99 273.920375 141.02625 275 136.8425 275C132.65875 275 128.69375 273.920375 124.949375 271.761125L36.89275 221.078125C33.147875 218.918875 30.2295 216.03425 28.137875 212.424125C26.046 208.81425 25 204.85 25 200.531625V100.73375C25 96.415 26.046 92.45125 28.137875 88.84125C30.2295 85.23125 33.147875 82.34625 36.89275 80.1875L124.949375 29.50375C128.69375 27.345 132.65875 26.265 136.8425 26.265C141.02625 26.265 144.99 27.345 148.735 29.50375L196.0525 56.73875V79.63125L146.71 51.0375V144.965L169.7375 158.29875V180.98225L136.8425 161.96875L55.591625 208.93225L134.8175 254.7575C135.4925 255.17925 136.1675 255.39 136.8425 255.39C137.5175 255.39 138.19125 255.17925 138.86625 254.7575L169.7375 236.90175V259.672875zM126.97375 144.965V51.0375L46.761 97.52C46.086125 97.94125 45.580125 98.4475 45.242875 99.03875C44.905375 99.62875 44.736625 100.26125 44.736625 100.93625V192.5865L126.97375 144.965zM216.52 38.1575V156.57875H193.12875V248.684625H275L251.6075 182.894875H275L216.52 38.1575z" />
    <glyph glyph-name="share"
      unicode="&#xF10D;"
      horiz-adv-x="300" d="M105.125 182.375L137.5 214.625V93.75H162.5V214.625L194.875 182.375L212.5 200L150 262.5L87.5 200L105.125 182.375zM237.5 62.5V150H262.5V62.5C262.5 48.75 251.2500000000001 37.5 237.5 37.5H62.5C48.75 37.5 37.5 48.75 37.5 62.5V150H62.5V62.5H237.5z" />
    <glyph glyph-name="severity_medium"
      unicode="&#xF10E;"
      horiz-adv-x="300" d="M150 268.75L18.75 31.25H281.25L150 268.75z" />
    <glyph glyph-name="severity_high"
      unicode="&#xF10F;"
      horiz-adv-x="300" d="M275 150L150 275.000375L24.999625 150L150 25L275 150z" />
    <glyph glyph-name="set_variable"
      unicode="&#xF110;"
      horiz-adv-x="300" d="M175 175H37.5V150H175V175zM175 225H37.5V200H175V225zM225 125V175H200V125H150V100H200V50H225V100H275V125H225zM37.5 100H125V125H37.5V100z" />
    <glyph glyph-name="selected_dotted"
      unicode="&#xF111;"
      horiz-adv-x="300" d="M50 262.5H62.5V237.5H37.5V250C37.5 253.31525 38.817 256.494625 41.161125 258.8388750000001C43.505375 261.183 46.68475 262.5 50 262.5zM250 262.5C253.315 262.5 256.495 261.183 258.83875 258.8388750000001C261.1825 256.494625 262.5 253.31525 262.5 250V237.5H237.5V262.5H250zM187.5 237.5V262.5H212.5V237.5H187.5zM137.5 237.5V262.5H162.5V237.5H137.5zM87.5 237.5V262.5H112.5V237.5H87.5zM262.5 50C262.5 46.685 261.1825 43.505 258.83875 41.16125C256.495 38.8175 253.315 37.5 250 37.5H237.5V62.5H262.5V50zM187.5 37.5V62.5H212.5V37.5H187.5zM137.5 37.5V62.5H162.5V37.5H137.5zM87.5 37.5V62.5H112.5V37.5H87.5zM50 37.5C46.68475 37.5 43.505375 38.8175 41.161125 41.16125C38.817 43.505 37.5 46.685 37.5 50V62.5H62.5V37.5H50zM37.5 112.5H62.5V87.5H37.5V112.5zM262.5 112.5V87.5H237.5V112.5H262.5zM37.5 162.5H62.5V137.5H37.5V162.5zM262.5 162.5V137.5H237.5V162.5H262.5zM37.5 212.5H62.5V187.5H37.5V212.5zM262.5 212.5V187.5H237.5V212.5H262.5zM105 157.5L128.75 133.75L195 200L212.5 182.5L128.75 98.75L87.5 140L105 157.5z" />
    <glyph glyph-name="scheduled_search"
      unicode="&#xF112;"
      horiz-adv-x="300" d="M193.75 125H183.875L180.375 128.375C192.625 142.625 200 161.125 200 181.25C200 226.125 163.625 262.5 118.75 262.5C73.875 262.5 37.5 226.125 37.5 181.25C37.5 136.375 73.875 100 118.75 100C138.875 100 157.375 107.375 171.625 119.625L175 116.125V106.25L237.5 43.875L256.125 62.5L193.75 125zM118.75 125C87.625 125 62.5 150.125 62.5 181.25C62.5 212.375 87.625 237.5 118.75 237.5C149.875 237.5 175 212.375 175 181.25C175 150.125 149.875 125 118.75 125zM107.144125 173.24V216.0705H124.554875V183.338375L152.87625 166.9725L144.17125 151.8825L107.144125 173.24z" />
    <glyph glyph-name="resolve_alert"
      unicode="&#xF113;"
      horiz-adv-x="300" d="M215 262.5H84.99975L19.99975 150L84.99975 37.5H215L280 150L215 262.5zM200.625 62.5H99.37475L48.87475 150L99.37475 237.5H200.5L251 150L200.625 62.5zM201 200L127.7775 130.0425L99.00025 157.43125L83.333625 142.4625L127.7775 100L216.6675 184.92575L201 200z" />
    <glyph glyph-name="reply_outline"
      unicode="&#xF114;"
      horiz-adv-x="300" d="M100 177.5V166.25L121.25 162.5C153.75 157.5 177.5 145 195 128.75C173.75 135 151.25 138.75 125 138.75H100V122.5L72.5 150L100 177.5zM125 237.5L37.5 150L125 62.5V113.75C187.5 113.75 231.25 93.75 262.5 50C250 112.5 212.5 175 125 187.5" />
    <glyph glyph-name="reorder"
      unicode="&#xF115;"
      horiz-adv-x="300" d="M50 162.5H250V137.5H50V162.5zM100 225L150 275L200 225H162.5V187.5H137.5V225H100zM150 25L200 75H162.5V112.5H137.5V75H100L150 25z" />
    <glyph glyph-name="reassign_group"
      unicode="&#xF116;"
      horiz-adv-x="300" d="M75 112.5C88.75 112.5 100 101.25 100 87.5C100 73.75 88.75 62.5 75 62.5C61.25 62.5 50 73.75 50 87.5C50 101.25 61.25 112.5 75 112.5zM75 137.5C47.5 137.5 25 115 25 87.5C25 60 47.5 37.5 75 37.5C102.5 37.5 125 60 125 87.5C125 115 102.5 137.5 75 137.5zM150 237.5C163.75 237.5 175 226.25 175 212.5C175 198.75 163.75 187.5 150 187.5C136.25 187.5 125 198.75 125 212.5C125 226.25 136.25 237.5 150 237.5zM150 262.5C122.5 262.5 100 240 100 212.5C100 185 122.5 162.5 150 162.5C177.5 162.5 200 185 200 212.5C200 240 177.5 262.5 150 262.5zM225 112.5C238.7500000000001 112.5 250 101.25 250 87.5C250 73.75 238.7500000000001 62.5 225 62.5C211.25 62.5 200 73.75 200 87.5C200 101.25 211.25 112.5 225 112.5zM225 137.5C197.5 137.5 175 115 175 87.5C175 60 197.5 37.5 225 37.5C252.5 37.5 275 60 275 87.5C275 115 252.5 137.5 225 137.5zM134.285 180.4635C137.3025 178.787125 138.39 174.9825 136.71375 171.965L134.10875 167.2775C132.4325 164.26 128.6275 163.1725 125.61 164.84875C122.593125 166.525 121.506 170.33 123.182375 173.3475L125.78625 178.03525C127.4625 181.052625 131.2675 182.139875 134.285 180.4635zM121.264375 157.02625C124.281875 155.35 125.36875 151.545 123.692625 148.5275L118.484375 139.1525C116.808 136.135 113.003 135.0475 109.985625 136.72375C106.968125 138.4 105.881 142.205 107.557375 145.2225L112.765625 154.5975C114.442 157.615 118.247 158.7025 121.264375 157.02625zM105.639375 128.90125C108.656875 127.225 109.744 123.42 108.067625 120.4025L105.4635 115.715C103.787125 112.6975 99.982125 111.61 96.96475 113.28625C93.947375 114.9625 92.860125 118.7675 94.5365 121.785L97.140625 126.4725C98.817 129.49 102.622 130.5775 105.639375 128.90125zM201.9325 114.45125C198.97125 112.67625 195.1325 113.6375 193.3575 116.5975L160.26875 171.78625C158.49375 174.74625 159.455 178.585375 162.415 180.360375C165.37625 182.135375 169.215 181.174375 170.99 178.213875L204.07875 123.025C205.85375 120.065 204.8925 116.22625 201.9325 114.45125z" />
    <glyph glyph-name="provisioning-outline"
      unicode="&#xF117;"
      horiz-adv-x="300" d="M61.611875 238.388875C12.8215 189.5985 12.8215 110.4025 61.611875 61.61125C110.40225 12.82125 189.5975 12.82125 238.38875 61.61125C287.17875 110.4025 287.17875 189.5985 238.38875 238.388875C189.5975 287.17925 110.40225 287.17925 61.611875 238.388875zM79.2895 79.28875C40.221875 118.3575 40.221875 181.6435 79.2895 220.711125C95.641375 237.063 116.235875 246.520625 137.5375 249.083875V50.91625C116.235875 53.48 95.641375 62.9375 79.2895 79.28875zM220.71 79.28875C204.35875 62.9375 183.76375 53.48 162.4625 50.91625V249.083875C183.76375 246.520625 204.35875 237.063 220.71 220.711125C259.77875 181.6435 259.77875 118.3575 220.71 79.28875z" />
    <glyph glyph-name="processs"
      unicode="&#xF118;"
      horiz-adv-x="300" d="M162.5 100V162.5V187.5V212.5H137.5V75H162.5H275V100H162.5zM275 212.5H25V237.5H275V212.5z" />
    <glyph glyph-name="process_elevated_privileges"
      unicode="&#xF119;"
      horiz-adv-x="300" d="M200 150C198.375 150 197 148.875 196.75 147.375L194.375 130.875C190.625 129.25 187 127.25 183.75 125L168.25 131.25C166.875 131.25 165.25 131.25 164.375 129.625L151.875 108C151.125 106.625 151.375 105 152.625 104L165.875 93.75C165.625 91.625 165.5 89.625 165.5 87.5C165.5 85.375 165.625 83.375 165.875 81.25L152.625 71C151.5 70 151.125 68.375 151.875 67L164.375 45.375C165.125 43.75 166.75 43.75 168.25 43.75L183.75 50C187 47.75 190.5 45.625 194.375 44.125L196.75 27.625C197 26.125 198.25 25 200 25H225C226.375 25 227.75 26.125 228 27.625L230.375 44.125C234.125 45.75 237.5 47.75 240.875 50L256.25 43.75C257.875 43.75 259.5 43.75 260.375 45.375L272.875 67C273.625 68.375 273.25 70 272.125 71L258.75 81.25C259 83.375 259.25 85.375 259.25 87.5C259.25 89.625 259.125 91.625 258.75 93.75L272 104C273.125 105 273.5 106.625 272.75 108L260.25 129.625C259.5 131.25 257.875 131.25 256.25 131.25L240.875 125C237.5 127.25 234.125 129.375 230.2500000000001 130.875L227.875 147.375C227.75 148.875 226.375 150 225 150H200zM212.5 106.25C222.875 106.25 231.25 97.875 231.25 87.5C231.25 77.125 222.875 68.75 212.5 68.75C202 68.75 193.75 77.125 193.75 87.5C193.75 97.875 202.125 106.25 212.5 106.25zM112.5 100V162.5V187.5V212.5H87.5V75H112.5H137.5V100H112.5zM275 212.5H25V237.5H275V212.5z" />
    <glyph glyph-name="os_windows_48"
      unicode="&#xF11A;"
      horiz-adv-x="300" d="M142.54 147.571875L120.74375 72.650625C101.803125 85.38875 81.198125 95.8925 37.5 77.801875L58.7971875 151.908125L59.06 152.030625C102.583125 169.92875 123.66125 160.370625 142.54 147.571875zM153.955625 140.335L132.413125 66.2375C151.33625 53.394375 172.3 43.170625 215.945625 61.235625L236.7175 133.466875C192.248125 118.240625 172.87875 127.5975 153.955625 140.335zM146.1675 161.063125L167.674375 235.283125C148.751875 248.073875 127.76125 258.332625 84.089375 240.2243125L62.564375 165.6975C79.919375 172.855 93.620625 176.13125 105.0975 176.035C122.5225 175.92125 134.769375 168.72875 146.1675 161.063125zM179.019375 227.4775L157.5125 152.828125C176.37375 140.0375 199.186875 129.550625 241.01 148.255L262.5 222.615625C218.880625 204.6125 197.9075 214.713125 179.019375 227.4775z" />
    <glyph glyph-name="os_linux_48"
      unicode="&#xF11B;"
      horiz-adv-x="300" d="M223.686875 102.4825C224.431875 102.4825 224.431875 102.780625 224.431875 103.45125C224.431875 105.09 223.686875 107.026875 221.451875 109.1875C219.2175 111.4225 215.4925 112.8375 211.0225 113.43375C210.2775 113.508125 209.5325 113.508125 209.5325 113.508125C208.788125 113.656875 208.788125 113.656875 208.043125 113.656875C207.298125 113.731875 205.808125 113.880625 205.063125 114.029375C207.298125 120.9575 208.043125 127.06625 208.043125 132.43C208.043125 139.88 206.553125 145.094375 203.573125 149.564375C200.593125 154.03375 197.61375 156.26875 193.88875 157.01375C193.14375 156.26875 193.14375 156.26875 193.14375 155.52375C196.86875 154.03375 200.593125 151.054375 202.828125 146.584375C205.063125 141.369375 205.808125 136.9 205.808125 131.685C205.808125 127.513125 205.063125 121.33 202.083125 113.43375C199.103125 112.241875 196.12375 109.485625 193.88875 105.164375C193.88875 104.494375 193.88875 104.121875 194.63375 104.121875C194.63375 104.121875 195.37875 104.791875 196.12375 106.05875C197.61375 107.325 198.358125 108.59125 199.848125 109.858125C202.083125 111.124375 203.573125 111.795 205.808125 111.795C209.5325 111.795 213.2575 111.273125 215.4925 110.230625C218.4725 109.261875 219.9625 108.21875 220.706875 107.026875C221.451875 105.909375 222.196875 104.866875 222.941875 103.898125C222.941875 102.93 223.686875 102.4825 223.686875 102.4825zM181.224375 48.100625C184.204375 42.49875 189.41875 39.6825 195.37875 39.6825C196.86875 39.6825 198.358125 39.90625 199.848125 40.353125C201.338125 40.65125 202.828125 41.1725 203.573125 41.76875C204.318125 42.29 205.063125 42.81125 205.808125 43.4075C207.298125 43.92875 207.298125 44.30125 208.043125 44.67375L220.706875 55.625C223.686875 58.00125 226.666875 60.08 230.391875 61.8825C233.37125 63.670625 236.35125 64.8625 237.84125 65.533125C240.07625 66.12875 241.56625 67.0225 243.05625 68.214375C243.800625 69.331875 244.545625 70.7475 244.545625 72.535625C244.545625 74.695625 243.05625 76.335 241.56625 77.526875C240.07625 78.71875 238.58625 79.538125 237.09625 80.059375C235.60625 80.58125 234.11625 81.773125 231.881875 83.784375C230.391875 85.72125 228.901875 88.403125 228.156875 91.904375L227.411875 96.225C226.666875 98.23625 226.666875 99.72625 225.921875 100.545625C225.921875 100.769375 225.921875 100.84375 225.176875 100.84375C224.431875 100.84375 222.941875 100.173125 222.196875 98.906875C220.706875 97.640625 219.2175 96.225 217.7275 94.735C216.9825 93.245 214.7475 91.904375 213.2575 90.638125C211.0225 89.37125 208.788125 88.70125 207.298125 88.70125C201.338125 88.70125 198.358125 90.34 196.12375 93.543125C194.63375 95.926875 193.88875 98.68375 193.14375 101.8125C191.65375 103.07875 190.90875 103.749375 189.41875 103.749375C185.694375 103.749375 184.204375 99.875625 184.204375 92.053125V89.595V80.95375V74.323125V71.12V68.885C184.204375 68.214375 183.459375 66.725 183.459375 64.415625C182.714375 62.10625 182.714375 59.48375 182.714375 56.51875L181.224375 48.25V48.123125M73.205 52.06375C80.133125 51.050625 88.104375 48.883125 97.11875 45.575625C106.1325 42.2975 111.645 40.584375 113.65625 40.584375C118.87125 40.584375 123.191875 42.89375 126.768125 47.355625C127.5125 48.80125 127.5125 50.499375 127.5125 52.45125C127.5125 59.49125 123.26625 68.39375 114.77375 79.195625L109.708125 85.974375C108.665625 87.39 107.39875 89.55 105.76 92.455625C104.195625 95.36125 102.78 97.595625 101.6625 99.16C100.694375 100.87375 99.13 102.586875 97.11875 104.300625C95.181875 106.01375 92.946875 107.13125 90.488125 107.7275C87.359375 107.13125 85.199375 106.088125 84.15625 104.673125C83.113125 103.2575 82.5175 101.693125 82.368125 100.054375C82.145 98.49 81.6975 97.446875 80.953125 96.925625C80.208125 96.478125 78.94125 96.105625 77.228125 95.73375C76.855625 95.73375 76.185 95.73375 75.216875 95.65875H73.205C69.256875 95.65875 66.575 95.211875 65.16 94.466875C63.2975 92.306875 62.328875 89.848125 62.328875 87.240625C62.328875 86.04875 62.626875 84.0375 63.223125 81.206875C63.81875 78.450625 64.116875 76.215625 64.116875 74.65125C64.116875 71.596875 63.223125 68.5425 61.3604375 65.488125C59.498 62.285 58.5295625 59.900625 58.5295625 58.2025C59.2745625 55.311875 64.19125 53.278125 73.205 52.08625M148.44625 207.521875C148.44625 206.776875 147.70125 206.776875 147.70125 206.776875H146.95625C146.21125 206.776875 146.21125 207.521875 145.46625 208.266875C145.46625 208.266875 144.72125 209.011875 144.72125 209.756875C144.72125 210.501875 144.72125 210.501875 145.46625 210.501875L146.95625 209.756875C147.70125 209.011875 148.44625 208.266875 148.44625 207.521875zM138.761875 206.776875C138.016875 206.776875 138.016875 206.776875 138.016875 207.521875C138.016875 208.266875 138.016875 209.011875 138.761875 209.756875C140.251875 209.756875 140.99625 210.501875 140.99625 210.501875C141.74125 210.501875 141.74125 209.756875 141.74125 209.756875C141.74125 209.011875 140.99625 208.266875 139.506875 206.776875H138.761875zM161.110625 218.69625C162.600625 218.69625 163.345625 217.20625 164.09 214.971875H165.58C164.835 215.716875 164.835 216.46125 164.835 217.20625C164.835 217.95125 164.835 218.69625 164.09 219.44125C163.345625 220.18625 162.600625 220.93125 161.855625 220.93125C161.855625 220.93125 161.110625 220.18625 160.365625 220.18625C160.365625 219.44125 161.110625 219.44125 161.110625 218.69625zM135.036875 214.971875C135.036875 218.69625 133.546875 220.93125 131.311875 220.93125C131.311875 220.93125 131.311875 220.18625 130.566875 220.18625V218.69625H132.801875C132.801875 217.20625 133.546875 216.46125 133.546875 214.971875H135.036875zM130.566875 207.521875C127.5875 209.011875 126.8425 211.246875 126.8425 214.971875C126.8425 217.20625 126.8425 218.69625 128.3325 220.18625C129.0775 221.67625 130.566875 222.42125 132.056875 222.42125C133.546875 222.42125 134.291875 221.67625 135.781875 220.18625C136.526875 217.95125 137.271875 215.716875 137.271875 213.481875V212.736875V211.991875H138.016875V212.736875C138.761875 212.736875 138.761875 214.226875 138.761875 217.20625C138.761875 219.44125 138.761875 221.67625 137.271875 223.91125C135.781875 226.14625 134.291875 227.635625 131.311875 227.635625C129.0775 227.635625 126.8425 226.14625 126.0975 223.91125C124.6075 220.93125 124.309375 218.69625 124.309375 214.971875C124.309375 211.991875 125.3525 209.011875 128.3325 206.031875C129.0775 206.776875 129.821875 206.776875 130.566875 207.521875zM155.150625 210.501875C154.405625 211.246875 154.405625 212.736875 154.405625 214.226875C154.405625 217.20625 154.405625 218.69625 155.895625 220.93125C157.385625 222.42125 158.875625 223.16625 160.365625 223.16625C162.600625 223.16625 164.09 221.67625 165.58 220.18625C166.325 217.95125 167.07 216.46125 167.07 214.226875C167.07 210.501875 165.58 208.266875 162.600625 207.521875C162.600625 207.521875 163.345625 206.776875 164.09 206.776875C165.58 206.776875 166.325 206.031875 167.815 205.286875C168.56 209.756875 169.305 212.736875 169.305 216.46125C169.305 220.93125 168.56 223.91125 167.07 226.14625C164.835 228.380625 162.600625 229.125625 159.620625 229.125625C157.385625 229.125625 155.150625 228.380625 152.915625 226.89125C151.42625 224.65625 150.68125 223.16625 150.68125 220.93125C150.68125 217.20625 151.42625 214.226875 152.915625 211.246875C153.660625 211.246875 154.405625 210.501875 155.150625 210.501875zM164.09 198.5825C154.405625 191.878125 146.95625 188.898125 140.99625 188.898125C135.781875 188.898125 130.566875 191.133125 126.0975 194.8575C126.8425 193.3675 127.5875 191.878125 128.3325 191.133125L132.801875 186.663125C135.781875 183.683125 139.506875 182.193125 143.23125 182.193125C148.44625 182.193125 154.405625 185.173125 161.855625 190.388125L168.56 194.8575C170.05 196.3475 171.54 197.8375 171.54 200.0725C171.54 200.8175 171.54 201.5625 170.795 201.5625C170.05 203.0525 166.325 205.286875 158.875625 207.521875C152.170625 210.501875 146.95625 211.991875 143.97625 211.991875C141.74125 211.991875 138.016875 210.501875 132.801875 207.521875C128.3325 204.541875 125.3525 201.5625 125.3525 198.5825C125.3525 198.5825 126.0975 197.8375 126.8425 196.3475C131.311875 192.623125 135.781875 190.388125 140.251875 190.388125C146.21125 190.388125 153.660625 193.3675 163.345625 200.8175V199.3275C164.09 199.3275 164.09 198.5825 164.09 198.5825zM98.0125 119.803125C98.0125 124.943125 99.353125 130.605 102.109375 137.309375C104.79125 144.014375 107.473125 148.48375 110.080625 151.46375C109.931875 152.20875 109.559375 152.20875 108.963125 152.20875L108.218125 152.95375C106.058125 150.71875 103.450625 145.504375 100.321875 138.054375C97.193125 131.35 95.55375 125.166875 95.55375 120.6225C95.55375 117.27 96.37375 114.365 97.863125 111.831875C99.5025 109.37375 103.450625 105.798125 109.708125 101.25375L117.605 96.113125C126.023125 88.8125 130.4925 83.746875 130.4925 80.7675C130.4925 79.2025 129.7475 77.638125 127.5125 75.925C126.023125 74.136875 124.01125 73.243125 122.298125 73.243125C122.149375 73.243125 122.074375 73.094375 122.074375 72.721875C122.074375 72.646875 122.819375 71.1575 124.38375 68.251875C127.5125 64.005625 134.2175 61.92 143.156875 61.92C159.54625 61.92 172.210625 68.624375 181.895 82.03375C181.895 85.75875 181.895 88.068125 181.15 89.03625V91.7925C181.15 96.635 181.895 100.285 183.385 102.66875C184.874375 105.053125 186.364375 106.170625 188.599375 106.170625C190.089375 106.170625 191.579375 105.64875 193.069375 104.53125C193.814375 110.2675 193.814375 115.25875 193.814375 119.72875C193.814375 126.5075 193.814375 132.095 192.324375 137.309375C191.579375 141.779375 190.089375 145.504375 188.599375 148.48375C187.109375 150.71875 185.619375 152.95375 184.129375 155.18875C182.64 157.42375 181.895 159.658125 180.405 161.893125C179.66 164.873125 178.915 167.108125 178.915 170.8325C176.68 174.5575 175.19 178.2825 172.955 182.006875C171.465625 185.731875 169.975625 189.456875 168.485625 192.436875L161.780625 187.221875C154.33125 182.006875 148.371875 179.7725 143.156875 179.7725C138.686875 179.7725 134.9625 180.5175 132.7275 183.496875L128.2575 187.221875C128.2575 184.986875 127.5125 182.006875 126.023125 179.0275L121.329375 170.088125C119.24375 164.873125 118.12625 161.893125 117.903125 159.658125C117.605 158.16875 117.38125 156.67875 117.2325 156.67875L111.645 145.504375C105.61125 134.33 102.556875 123.975 102.556875 115.408125C102.556875 113.694375 102.705625 111.90625 103.00375 110.11875C99.65125 112.428125 98.0125 115.63125 98.0125 119.803125zM151.35125 49.33C141.666875 49.33 134.2175 48.01875 129.0025 45.41875V45.6425C125.278125 41.1725 121.10625 38.863125 115.295625 38.863125C111.645 38.863125 105.90875 40.27875 98.16125 43.109375C90.339375 45.79125 83.41125 47.8475 77.376875 49.203125C76.78125 49.374375 75.44 49.628125 73.28 49.970625C71.19375 50.305625 69.256875 50.64875 67.54375 50.99125C65.979375 51.32625 64.19125 51.833125 62.254375 52.518125C60.392 53.106875 58.9020625 53.874375 57.784625 54.805625C56.7565625 55.74375 56.25 56.801875 56.25 57.98625C56.25 59.178125 56.5033125 60.4525 57.009875 61.808125C57.486625 62.6275 58.008125 63.446875 58.5295625 64.191875C59.0510625 65.01125 59.498 65.75625 59.796 66.50125C60.243 67.171875 60.5409375 67.841875 60.8389375 68.586875C61.1369375 69.2575 61.4349375 69.928125 61.5839375 70.7475C61.732875 71.4925 61.881875 72.2375 61.881875 72.9825C61.881875 73.7275 61.5839375 75.9625 60.9879375 79.910625C60.392 83.784375 60.094 86.2425 60.094 87.285625C60.094 90.563125 60.8389375 93.170625 62.477875 95.033125C64.116875 96.895625 65.68125 97.86375 67.32 97.86375H75.886875C76.5575 97.86375 77.600625 98.23625 79.165 99.130625C79.68625 100.3225 80.133125 101.290625 80.43125 102.185C80.80375 103.07875 80.953125 103.749375 81.101875 104.0475C81.250625 104.494375 81.4 104.94125 81.54875 105.31375C81.846875 105.835 82.219375 106.43125 82.740625 107.026875C82.145 107.771875 81.846875 108.740625 81.846875 109.9325C81.846875 110.751875 81.846875 111.496875 81.995625 111.94375C81.995625 114.625625 83.2625 118.425 85.944375 123.41625L88.55125 128.109375C90.711875 132.131875 92.350625 135.111875 93.5425 138.091875C94.809375 141.071875 96.15 145.54125 97.64 151.50125C98.831875 156.715625 101.6625 161.930625 106.1325 167.145L111.719375 173.85C115.59375 178.319375 118.12625 182.044375 119.541875 185.024375C120.956875 188.004375 121.701875 191.72875 121.701875 194.70875C121.701875 196.19875 121.329375 200.668125 120.51 208.118125C119.765 215.5675 119.3925 223.016875 119.3925 229.721875C119.3925 234.93625 119.84 238.6613125 120.808125 242.386125C121.776875 246.110875 123.49 249.8356875 126.023125 252.8155625C128.2575 255.795375 131.2375 258.7751875 135.7075 260.265125C140.176875 261.7550625 145.391875 262.5 151.35125 262.5C153.58625 262.5 155.82125 262.5 158.05625 261.7550625C160.29125 261.7550625 163.270625 261.0100625 166.995625 259.5201875C169.975625 258.03025 172.955 256.5403125000001 175.19 254.3054375C178.17 252.0705625 180.405 248.34575 182.64 244.621C184.129375 240.15125 185.619375 235.68125 186.364375 229.721875C187.109375 225.996875 187.109375 222.2725 187.854375 217.0575C187.854375 212.5875 188.599375 209.608125 188.599375 207.373125C189.344375 205.138125 189.344375 202.158125 190.089375 198.43375C190.834375 195.45375 191.579375 192.47375 193.069375 190.23875C194.559375 187.259375 196.04875 184.279375 198.28375 181.299375C200.51875 177.574375 203.49875 173.85 206.47875 169.38C213.183125 161.930625 218.3975 153.73625 221.3775 145.54125C225.1025 138.091875 227.3375 128.4075 227.3375 118.0525C227.3375 112.9125 226.5925000000001 107.92125 225.1025 103.07875C226.5925000000001 103.07875 227.3375 102.4825 228.0825 101.44C228.8275 100.396875 229.5725 98.161875 230.316875 94.660625L231.061875 89.148125C231.806875 87.509375 232.551875 85.945 234.786875 84.60375C236.276875 83.263125 237.7668750000001 82.145625 240.001875 81.25125C241.49125 80.50625 243.72625 79.46375 245.21625 78.1225C246.70625 76.6325 247.45125 75.068125 247.45125 73.429375C247.45125 70.89625 246.70625 69.034375 245.21625 67.693125C243.72625 66.203125 242.23625 65.160625 240.001875 64.49C238.5118750000001 63.745 235.531875 62.255 231.061875 60.154375C227.3375 57.949375 223.6125 55.275 219.8875 52.10875L212.438125 45.76875C209.458125 42.86375 206.47875 40.778125 204.24375 39.51125C202.00875 38.170625 199.02875 37.5 196.04875 37.5L190.834375 38.09625C184.874375 39.660625 181.15 42.64 178.915 47.184375C166.995625 48.63 157.31125 49.345 151.35125 49.345" />
    <glyph glyph-name="onboarding_welcome_48"
      unicode="&#xF11C;"
      horiz-adv-x="300" d="M257.055 122.9125C257.055 119.050625 256.459375 115.246875 255.598125 111.46C269.38 102.135 278.4568750000001 86.364375 278.4568750000001 68.50625C278.4568750000001 39.91875 255.199375 16.666875 226.616875 16.666875C210.06 16.666875 195.329375 24.494375 185.83125 36.6175C170.25125 27.6625 154.780625 20.875625 142.559375 17.065625C141.77875 16.81125 140.9 16.684375 139.9925 16.684375C139.079375 16.684375 138.211875 16.81125 137.396875 17.07125C97.495625 29.495 22.9186875 73.29875 22.9186875 122.9125V242.1543125C22.9186875 245.9583125 25.462375 249.375 29.1045 250.4560625L137.495 282.9691875C139.119375 283.449 140.8425 283.4605625 142.4725 282.9691875L250.86875 250.4560625C254.56875 249.3403125 257.055 246.0045625 257.055 242.1543125V122.9125zM226.6175 23.170625C201.62 23.170625 181.2875 43.50875 181.2875 68.50625C181.2875 93.50375 201.62 113.841875 226.6175 113.841875C251.615 113.841875 271.953125 93.50375 271.953125 68.50625C271.953125 43.50875 251.615 23.170625 226.6175 23.170625zM140.59375 23.26875C140.264375 23.164375 139.7325 23.153125 139.350625 23.28C101.01625 35.206875 29.4224375 76.680625 29.4224375 122.9125V242.15425C29.4224375 243.102375 30.058375 243.9521875 30.966 244.2239375L139.3625 276.7370625C139.565 276.8006250000001 139.77875 276.8295625 139.986875 276.8295625C140.195 276.8295625 140.403125 276.8006250000001 140.605625 276.7370625L248.995625 244.2296875C249.926875 243.9464375 250.55125 243.1139375 250.55125 242.15425V122.9125C250.55125 120.20125 250.21 117.513125 249.724375 114.83625C242.758125 118.328125 234.924375 120.345625 226.616875 120.345625C198.035 120.345625 174.783125 97.088125 174.783125 68.50625C174.783125 58.770625 177.529375 49.694375 182.211875 41.90125C167.2275 33.40875 152.3525 26.928125 140.59375 23.26875zM253.126875 66.665625L234.2925 47.625625C233.29875 46.6225 231.6725 46.6275 230.67875 47.625625C229.685625 48.62375 229.685625 50.25125 230.67875 51.25375L243.41625 64.099375H205.65625C204.25625 64.099375 203.126875 65.248125 203.126875 66.665625C203.126875 68.07875 204.25625 69.226875 205.65625 69.226875H243.41625L230.67875 82.08125C229.685625 83.084375 229.685625 84.7025 230.67875 85.71C231.6725 86.708125 233.29875 86.708125 234.2925 85.71L253.126875 66.665625zM187.67 125.954375C187.67 137.27375 183.72125 148.31 176.5525 157.045C172.4075 162.08625 167.3025 166.236875 161.608125 169.260625C167.2275 175.105625 170.580625 183.01375 170.580625 191.436875C170.580625 209.04625 156.255 223.36625 138.645625 223.36625C121.03625 223.36625 106.710625 209.04625 106.710625 191.436875C106.710625 183.01375 110.06375 175.105625 115.683125 169.260625C109.98875 166.236875 104.88375 162.08625 100.73875 157.045C93.57 148.31 89.621875 137.27375 89.621875 125.954375C89.621875 122.36375 92.535625 119.45 96.125625 119.45H181.16625C184.75625 119.45 187.67 122.36375 187.67 125.954375zM129.858125 167.560625C120.14 171.139375 113.214375 180.47 113.214375 191.436875C113.214375 205.479375 124.5975 216.8625 138.645625 216.8625C152.69375 216.8625 164.076875 205.479375 164.076875 191.436875C164.076875 180.47 157.15125 171.139375 147.433125 167.560625C166.695625 163.514375 181.16625 146.425 181.16625 125.95375H96.125625C96.125625 146.425 110.595625 163.514375 129.858125 167.560625z" />
    <glyph glyph-name="onboarding_select_data_source_48"
      unicode="&#xF11D;"
      horiz-adv-x="300" d="M268.861875 122.22375C272.839375 120.084375 275.486875 117.251875 276.729375 113.84125C276.7356250000001 113.84125 276.74 113.826875 276.744375 113.8125L276.750625 113.793125C276.753125 113.7875 276.755625 113.78375 276.75875 113.78375C277.6375 111.1825 277.49875 108.060625 276.3425 104.534375C275.9781250000001 103.146875 275.313125 101.933125 274.643125 100.776875L254.098125 65.1675C254.095625 65.1675 254.0925 65.164375 254.089375 65.159375L254.0775 65.13875L254.070625 65.125C254.06625 65.11625 254.06125 65.109375 254.0575 65.109375C250.7162500000001 59.675625 246.536875 56.900625 241.6287500000001 56.900625C238.819375 56.900625 235.905625 57.825625 232.72625 59.618125L208.765 73.43375L208.7625 73.431875C206.59 71.81375 204.4175 70.19625 202.250625 68.52C202.16375 68.4625 202.07125 68.404375 201.97875 68.346875C196.51 65.109375 191.053125 62.335 185.72875 60.195625V32.275C185.72875 22.21625 180.185 16.666875 170.126875 16.666875H130.118125C120.065 16.666875 114.5275 22.21625 114.5275 32.275V59.79125C105.740625 63.26 97.514375 68.0575 90.016875 74.07L67.500625 61.23625C64.390625 59.444375 61.373125 58.519375 58.557875 58.519375C55.0951875 58.519375 50.1295 59.964375 46.158125 66.78625L25.5844375 102.453125C25.480375 102.626875 25.393625 102.8 25.32425 103.03125C25.2606875 103.205 25.2086875 103.320625 25.17975 103.378125L25.1085625 103.483125L25.1084375 103.483125C24.98425 103.665 24.8793125 103.819375 24.7866875 104.014375C22.052375 109.679375 20.9598125 117.714375 31.3246875 123.784375L54.332125 137.08C53.8928125 140.3175 53.69625 143.496875 53.51125 146.560625L53.4939375 146.849375C53.488125 146.9075 53.488125 146.965 53.488125 147.023125V149.7975C53.488125 154.769375 53.835 159.5675 54.5518125 164.3075L31.353625 177.603125C27.2088125 180.08875 24.6595 182.979375 23.7056875 186.274375C21.9309375 191.0725 23.890625 195.755 25.532375 198.81875C25.54975 198.87625 25.572875 198.934375 25.5959375 198.934375L46.36625 234.60125C50.222 241.59625 55.2281875 243.0414375 58.748625 243.0414375C61.511875 243.0414375 64.465625 242.174375 67.518125 240.3823125L91.485 226.56625C93.67625 228.2425 95.913125 229.86125 98.144375 231.364375C103.43375 234.716875 108.92 237.54975 114.5275 239.80425V267.725375C114.5275 277.783875 120.065 283.333375 130.118125 283.333375H170.126875C180.185 283.333375 185.72875 277.783875 185.72875 267.725375V240.0354375C194.16875 236.798125 202.38875 232 210.221875 225.756875L232.691875 238.7636875C235.784375 240.671375 238.790625 241.59625 241.61125 241.59625C245.1031250000001 241.59625 250.10375 240.09325 254.115625 232.983125L274.66625 197.373125C279.695 188.7025 277.805 181.303125 269.203125 176.0425C269.1887500000001 176.0425 269.1725 176.028125 269.156875 176.01375L269.144375 176.0025L269.14 175.99875L269.1275 175.99C269.12125 175.986875 269.11625 175.984375 269.110625 175.984375L246.05125 162.8625C246.34875 159.82875 246.531875 156.795625 246.711875 153.815V153.814375L246.711875 153.81375L246.711875 153.813125L246.711875 153.811875L246.7275 153.555L246.750625 153.150625L246.753125 153.12L246.755625 153.07375C246.75625 153.04125 246.75625 153.009375 246.75625 152.976875V150.26C246.75625 145.230625 246.409375 140.490625 245.69875 135.6925L268.861875 122.22375zM270.10125 106.37C270.111875 106.40875 270.123125 106.44875 270.13375 106.5C270.8506250000001 108.63875 271.0125 110.430625 270.601875 111.7025C269.91375 113.5525 268.278125 115.170625 265.74 116.500625C265.705625 116.558125 265.6706250000001 116.558125 265.641875 116.558125L240.495625 131.18375C239.321875 131.8775 238.698125 133.206875 238.92875 134.53625C239.819375 139.739375 240.253125 144.82625 240.253125 150.26L240.235625 153.150625C240.0156250000001 156.7925 239.784375 160.6075 239.356875 164.249375C239.20625 165.579375 239.848125 166.850625 240.98125 167.486875L265.85 181.591875C271.3762500000001 185.0025 272.2725 188.52875 269.0350000000001 194.078125L248.4675000000001 229.745625C245.46125 235.121875 242.565 235.121875 241.61125 235.121875C239.9925 235.121875 238.125625 234.428125 236.05625 233.214375C236.033125 233.15625 236.01 233.15625 235.986875 233.15625L211.53375 218.993125C210.355 218.3 208.869375 218.415625 207.816875 219.2825C199.394375 226.335 190.50375 231.5375 181.404375 234.716875C180.098125 235.179375 179.225625 236.39375 179.225625 237.780875V267.72525C179.225625 274.1996875 176.589375 276.8010625 170.12625 276.8010625H130.1175C123.660625 276.8010625 121.030625 274.1996875 121.030625 267.72525V237.5496875C121.030625 236.22 120.180625 235.00625 118.90875 234.54375C113.000625 232.346875 107.20875 229.39875 101.699375 225.930625C99.716875 224.57875 97.646875 223.051875 95.59875 221.540625C95.01875 221.1125 94.440625 220.68625 93.86625 220.265L93.67 220.091875C92.62375 219.34 91.225 219.224375 90.0975 219.860625L64.263125 234.775C62.2110625 235.93125 60.3554375 236.566875 58.748375 236.566875C57.783 236.566875 54.8579375 236.566875 52.0485 231.421875C52.0389375 231.421875 52.031125 231.404375 52.024125 231.38875C52.0184375 231.375625 52.01325 231.364375 52.008 231.364375L31.2435 195.755C29.0873125 191.650625 29.3531875 189.685 29.833 188.413125C29.8735 188.355625 29.902375 188.24 29.9313125 188.124375C30.39375 186.4475 31.9776875 184.829375 34.642625 183.210625L59.736875 168.81625C60.9219375 168.1225 61.557875 166.793125 61.3208125 165.46375C60.4248125 160.31875 59.99125 155.17375 59.99125 149.7975L60.0028125 146.965C60.2340625 143.15 60.45375 139.565625 61.095375 135.92375C61.332375 134.594375 60.7023125 133.264375 59.51725 132.57125L34.596375 118.176875C29.49775 115.170625 28.2895625 111.99125 30.492 107.193125C30.8215 106.73125 31.10475 106.153125 31.3706875 105.40125L51.788375 70.023125C54.701875 64.99375 57.6095625 64.99375 58.557625 64.99375C60.2109375 64.99375 62.130125 65.63 64.251875 66.90125L88.73875 80.833125C89.241875 81.121875 89.796875 81.2375 90.34625 81.2375C91.091875 81.2375 91.8375 81.00625 92.433125 80.48625C100.421875 73.838125 109.33 68.635625 118.90875 65.051875C120.180625 64.589375 121.030625 63.375 121.030625 61.988125V32.275C121.030625 25.858125 123.660625 23.19875 130.1175 23.19875H170.12625C176.589375 23.19875 179.225625 25.858125 179.225625 32.275V62.45C179.225625 63.8375 180.069375 65.051875 181.346875 65.514375C186.919375 67.595 192.683125 70.37 198.486875 73.838125L202.530625 76.873125L206.574375 79.908125C207.614375 80.7175 209.019375 80.775625 210.146875 80.139375L235.980625 65.283125C238.1200000000001 64.01125 240.0156250000001 63.433125 241.6287500000001 63.433125C243.2356250000001 63.433125 245.698125 63.953125 248.490625 68.4625L269.0350000000001 104.071875C269.6425 105.1125 269.943125 105.748125 270.064375 106.210625C270.07 106.24875 270.076875 106.280625 270.084375 106.310625L270.10125 106.37zM121.90375 117.830625H194.885625V124.33375H121.90375V117.830625zM113.48625 117.830625H105.445V124.33375H113.48625V117.830625zM121.90375 146.73375H194.885625V153.236875H121.90375V146.73375zM113.48625 146.73375H105.445V153.236875H113.48625V146.73375zM121.90375 175.69625H194.885625V182.199375H121.90375V175.69625zM113.48625 175.69625H105.445V182.199375H113.48625V175.69625z" />
    <glyph glyph-name="ndr-icon"
      unicode="&#xF11E;"
      horiz-adv-x="300" d="M150.0025 187.502125L177.88125 159.622375L150.0025 131.7425L122.12225 159.622375zM148.09 72.57125L116.839375 41.32125L0 158.160625L116.839375 275L148.09 243.75L179.34 275L296.17875 158.160625L179.34 41.32125zM116.839375 67.8375L134.83125 85.83L62.5 158.160625L134.83125 230.49175L116.839375 248.4835L26.5165 158.160625zM233.67875 158.160625L161.3475 85.83L179.34 67.8375L269.6625 158.160625L179.34 248.4835L161.3475 230.49175zM89.0165 158.160625L148.09 99.0875L207.1625 158.160625L148.09 217.2335z" />
    <glyph glyph-name="mxdr"
      unicode="&#xF11F;"
      horiz-adv-x="300" d="M150.095 212.45225L150 212.5L149.905 212.45225C138.0375 197.853625 120.192125 188.3095 100.098125 187.549125L100 187.5V155.625C100 139.79125 104.739625 127.865 114.21875 114.84375C123.697875 101.8225 135.625 98.54125 150 87.5C164.375 98.54125 176.3025 101.8225 185.78125 114.84375C195.26 127.865 200 139.79125 200 155.625V187.5L199.90125 187.549125C179.8075 188.3095 161.9625 197.853625 150.095 212.45225zM150 25C132.70875 25 116.458375 28.28125 101.25 34.84375C86.041625 41.40625 72.8125 50.3125 61.5625 61.5625C50.3125 72.8125 41.40625 86.04125 34.84375 101.25C28.28125 116.45875 25 132.70875 25 150C25 158.95875 25.9375 167.76 27.8125 176.40625C29.6875 185.052125 32.395875 193.4375 35.9375 201.5625L55.3125 182.1875C53.645875 176.770875 52.34375 171.40625 51.40625 166.09375C50.46875 160.78125 50 155.41625 50 150C50 122.08375 59.6875 98.4375 79.0625 79.0625C98.4375 59.6875 122.083375 50 150 50C177.91625 50 201.5625 59.6875 220.9375 79.0625C240.3125000000001 98.4375 250 122.08375 250 150C250 177.916625 240.3125000000001 201.5625 220.9375 220.9375C201.5625 240.3125 177.91625 250 150 250C144.375 250 138.90625 249.53125 133.59375 248.59375C128.28125 247.65625 123.020875 246.354125 117.8125 244.6875L98.75 263.75C107.083375 267.5 115.416625 270.3125 123.75 272.1875C132.08375 274.0625 140.83375 275 150 275C167.29125 275 183.54125 271.71875 198.75 265.15625C213.95875 258.59375 227.1875 249.6875 238.4375 238.4375C249.6875000000001 227.1875 258.59375 213.958375 265.15625 198.75C271.71875 183.541625 275 167.29125 275 150C275 132.70875 271.71875 116.45875 265.15625 101.25C258.59375 86.04125 249.6875000000001 72.8125 238.4375 61.5625C227.1875 50.3125 213.95875 41.40625 198.75 34.84375C183.54125 28.28125 167.29125 25 150 25zM68.75 212.5C63.541625 212.5 59.114625 214.322875 55.46875 217.96875C51.822875 221.614625 50 226.041625 50 231.25C50 236.458375 51.822875 240.885375 55.46875 244.53125C59.114625 248.177125 63.541625 250 68.75 250C73.958375 250 78.385375 248.177125 82.03125 244.53125C85.677125 240.885375 87.5 236.458375 87.5 231.25C87.5 226.041625 85.677125 221.614625 82.03125 217.96875C78.385375 214.322875 73.958375 212.5 68.75 212.5z" />
    <glyph glyph-name="mark_open"
      unicode="&#xF120;"
      horiz-adv-x="300" d="M150 100C177.61375 100 200 122.38625 200 150C200 177.61425 177.61375 200 150 200C122.38575 200 100 177.61425 100 150C100 122.38625 122.38575 100 150 100z" />
    <glyph glyph-name="mark"
      unicode="&#xF121;"
      horiz-adv-x="300" d="M150 100C177.61375 100 200 122.38625 200 150C200 177.61425 177.61375 200 150 200C122.38575 200 100 177.61425 100 150C100 122.38625 122.38575 100 150 100z" />
    <glyph glyph-name="loop"
      unicode="&#xF122;"
      horiz-adv-x="245.45454545454547" d="M136.4440909090909 190.9090909090909V163.6363636363636H95.5344545454546V190.9090909090909H61.4435454545455V218.1818181818182H95.5344545454546V300H0.0799006363636V218.1818181818182H34.1708181818182V190.9090909090909H0.0799006363636V109.0909090909091H34.1708181818182V81.8181818181818H0.0799006363636V0H95.5344545454546V81.8181818181818H61.4435454545455V109.0909090909091H95.5344545454546V136.3636363636364H136.4440909090909V109.0909090909091H231.8986363636364V190.9090909090909H136.4440909090909zM27.3526363636364 272.7272727272728H68.2617272727273V245.4545454545455H27.3526363636364V272.7272727272728zM68.2617272727273 27.2727272727273H27.3526363636364V54.5454545454545H68.2617272727273V27.2727272727273zM68.2617272727273 136.3636363636364H27.3526363636364V163.6363636363636H68.2617272727273V136.3636363636364zM204.6259090909091 136.3636363636364H163.7168181818182V163.6363636363636H204.6259090909091V136.3636363636364z" />
    <glyph glyph-name="logo_sw"
      unicode="&#xF123;"
      horiz-adv-x="300" d="M193.0125 73.77625L229.21 37.58C175.54375 -0.3275 100.80875 4.73625 52.772875 52.7725C4.73685 100.80875 -0.3274325 175.544 37.58 229.2095L73.7765 193.013C54.925625 159.65 59.709375 116.54625 88.128125 88.1275C116.546875 59.71 159.65 54.925 193.0125 73.77625zM227.73 109.77L264.17125 73.32875C300.1575 126.7925 294.51 199.944125 247.2275 247.227125C199.94375 294.510225 126.7925 300.158125 73.32925 264.170875L109.770375 227.729875C142.7175 244.792375 184.2375 239.506375 211.87125 211.87175C239.50625 184.23725 244.7925 142.7175 227.73 109.77zM192.97375 125L207.74875 165.05H199.42375L188.54875 135.35L177.74875 165.05H169.87375L158.84875 135.5L148.27375 165.05H139.42375L154.12375 125H163.12375L173.62375 152.6L183.97375 125H192.97375zM103.536875 125.975C107.311875 124.825 111.224375 124.25 115.274375 124.25C119.874375 124.25 123.774375 124.95 126.97375 126.35C130.17375 127.75 132.56125 129.625 134.13625 131.975C135.71125 134.325 136.49875 136.95 136.49875 139.85C136.49875 143.25 135.61125 145.95 133.83625 147.95C132.06125 149.95 129.92375 151.4375 127.42375 152.4125C124.924375 153.3875 121.724375 154.325 117.824375 155.225C114.974375 155.925 112.724375 156.55 111.074375 157.1C109.424375 157.65 108.061875 158.4 106.986875 159.35C105.911875 160.3 105.374375 161.525 105.374375 163.025C105.374375 165.175 106.311875 166.9 108.186875 168.2C110.061875 169.5 112.92425 170.15 116.774375 170.15C119.124375 170.15 121.549375 169.8 124.049375 169.1C126.54875 168.4 128.94875 167.375 131.24875 166.025L134.32375 173.6C132.07375 175.10025 129.39875 176.25025 126.29875 177.05025C123.199375 177.85025 120.049375 178.25025 116.849375 178.25025C112.249375 178.25025 108.361875 177.55025 105.186875 176.15025C102.011875 174.75 99.636875 172.8625 98.061875 170.4875C96.486875 168.1125 95.699375 165.475 95.699375 162.575C95.699375 159.125 96.586875 156.3875 98.361875 154.3625C100.136875 152.3375 102.261875 150.85 104.736875 149.9C107.211875 148.95 110.449375 148 114.449375 147.05C117.299375 146.35 119.549375 145.725 121.199375 145.175C122.849375 144.625 124.211875 143.8625 125.28625 142.8875C126.36125 141.9125 126.89875 140.675 126.89875 139.175C126.89875 137.125 125.93625 135.475 124.011875 134.225C122.086875 132.975 119.174375 132.35 115.274375 132.35C112.124375 132.35 108.986875 132.8875 105.861875 133.9625C102.736875 135.0375 100.099375 136.425 97.949375 138.125L94.574375 130.55C96.774375 128.65 99.761875 127.125 103.536875 125.975z" />
    <glyph glyph-name="logo_red_cloak"
      unicode="&#xF124;"
      horiz-adv-x="300" d="M150 287.5L101.60175 273.743625L25 118.4075L108.759625 182.300625L150 187.5L191.24 182.300625L275 118.4075L198.39875 273.743625L150 287.5zM156.24875 152.48125L197.9925 162.5L209.0275 154.58125L197.9925 142.46375L156.24875 152.48125zM226.57125 137.5L152.89625 117.6075L79.220625 137.5L12.5 86.5375L79.220625 60.92875L45.68725 9.05625H132.87L152.89625 32.425L172.9225 9.05625H260.105L226.57125 60.92875L293.2925 86.5375L226.57125 137.5zM146.5275 152.48125L104.784875 162.5L93.75 154.58125L104.784875 142.46375L146.5275 152.48125z" />
    <glyph glyph-name="lightning_bolt_outline"
      unicode="&#xF125;"
      horiz-adv-x="300" d="M137.5 181.625V162.5H184.5L162.5 118.375V137.5H115.5L137.5 181.625zM162.5 287.5L75 112.5H137.5V12.5L225 187.5H162.5V287.5z" />
    <glyph glyph-name="iterate"
      unicode="&#xF126;"
      horiz-adv-x="275" d="M60 225H210V180L270 240L210 300V255H30V165H60V225zM210 75H60V120L0 60L60 0V45H240V135H210V75z" />
    <glyph glyph-name="investigations-filled"
      unicode="&#xF127;"
      horiz-adv-x="300" d="M37.5 187.5H12.5V50C12.5 36.125 23.625 25 37.5 25H250V50H37.5V187.5zM225 237.5V262.5C225 276.25 213.75 287.5 200 287.5H150C136.25 287.5 125 276.25 125 262.5V237.5H62.5V100C62.5 86.25 73.75 75 87.5 75H262.5C276.25 75 287.5 86.25 287.5 100V237.5H225zM150 262.5H200V237.5H150V262.5z" />
    <glyph glyph-name="internal"
      unicode="&#xF128;"
      horiz-adv-x="300" d="M75 262.5C54.289375 262.5 37.5 245.710625 37.5 225V75C37.5 54.28875 54.289375 37.5 75 37.5H225C245.71125 37.5 262.5 54.28875 262.5 75V225C262.5 245.710625 245.71125 262.5 225 262.5H75zM134.375 212.5C129.1975 212.5 125 208.302625 125 203.125V196.875C125 191.697375 129.1975 187.5 134.375 187.5H137.5V100H134.375C129.1975 100 125 95.8025 125 90.625V84.375C125 79.1975 129.1975 75 134.375 75H178.125C183.3025 75 187.5 79.1975 187.5 84.375V90.625C187.5 95.8025 183.3025 100 178.125 100H162.5V187.5H178.125C183.3025 187.5 187.5 191.697375 187.5 196.875V203.125C187.5 208.302625 183.3025 212.5 178.125 212.5H153.125H146.875H134.375z" />
    <glyph glyph-name="help_outline"
      unicode="&#xF129;"
      horiz-adv-x="300" d="M137.5 75H162.5V100H137.5V75zM150 275C81 275 25 219 25 150S81 25 150 25S275 81 275 150S219 275 150 275zM150 50C94.875 50 50 94.875 50 150S94.875 250 150 250S250 205.125 250 150S205.125 50 150 50zM150 225C122.375 225 100 202.625 100 175H125C125 188.75 136.25 200 150 200S175 188.75 175 175C175 150 137.5 153.125 137.5 112.5H162.5C162.5 140.625 200 143.75 200 175C200 202.625 177.625 225 150 225z" />
    <glyph glyph-name="group"
      unicode="&#xF12A;"
      horiz-adv-x="300" d="M150 262.5L37.5 196.875L57.875 184.96875L150 131.25L242 184.96875L262.5 196.875L150 262.5zM242.125 161.90625L150 108.09375L57.75 161.8125L37.5 150L150 84.375L262.5 150L242.125 161.90625zM242.125 115.03125L150 61.21875L57.75 114.9375L37.5 103.125L150 37.5L262.5 103.125L242.125 115.03125z" />
    <glyph glyph-name="fit-graph"
      unicode="&#xF12B;"
      horiz-adv-x="300" d="M25 0C18.3333333333333 0 12.5 2.4999999999999 7.5 7.4999999999999C2.5 12.5 0 18.3333333333333 0 25V96.6666666666667H25V25H96.6666666666667V0H25zM203.3333333333334 0V25H275V96.6666666666667H300V25C300 18.3333333333333 297.5000000000001 12.5 292.5000000000001 7.4999999999999C287.5 2.4999999999999 281.6666666666667 0 275 0H203.3333333333334zM0 203.3333333333333V275C0 281.6666666666667 2.5 287.5 7.5 292.5C12.5 297.5 18.3333333333333 300 25 300H96.6666666666667V275H25V203.3333333333333H0zM275 203.3333333333333V275H203.3333333333334V300H275C281.6666666666667 300 287.5 297.5 292.5000000000001 292.5C297.5000000000001 287.5 300 281.6666666666667 300 275V203.3333333333333H275zM91.6721666666667 120.8333333333333C102.3665 120.8333333333333 111.1165 112.0833333333333 111.1165 101.3883333333333C111.1165 90.695 102.3665 81.945 91.6721666666667 81.945C80.9776666666667 81.945 72.2276666666667 90.695 72.2276666666667 101.3883333333333C72.2276666666667 112.0833333333333 80.9776666666667 120.8333333333333 91.6721666666667 120.8333333333333zM91.6721666666667 140.2778333333333C70.2831666666667 140.2778333333333 52.7831666666667 122.7783333333333 52.7831666666667 101.3883333333333C52.7831666666667 80 70.2831666666667 62.5 91.6721666666667 62.5C113.061 62.5 130.561 80 130.561 101.3883333333333C130.561 122.7783333333333 113.061 140.2778333333333 91.6721666666667 140.2778333333333zM150.0055 218.0555C160.6998333333334 218.0555 169.45 209.3055 169.45 198.6111666666667C169.45 187.9166666666667 160.6998333333334 179.1666666666667 150.0055 179.1666666666667C139.311 179.1666666666667 130.561 187.9166666666667 130.561 198.6111666666667C130.561 209.3055 139.311 218.0555 150.0055 218.0555zM150.0055 237.5C128.6165 237.5 111.1165 220 111.1165 198.6111666666667C111.1165 177.2221666666667 128.6165 159.7221666666667 150.0055 159.7221666666667C171.395 159.7221666666667 188.895 177.2221666666667 188.895 198.6111666666667C188.895 220 171.395 237.5 150.0055 237.5zM208.3383333333334 120.8333333333333C219.0333333333333 120.8333333333333 227.7833333333334 112.0833333333333 227.7833333333334 101.3883333333333C227.7833333333334 90.695 219.0333333333333 81.945 208.3383333333334 81.945C197.6450000000001 81.945 188.895 90.695 188.895 101.3883333333333C188.895 112.0833333333333 197.6450000000001 120.8333333333333 208.3383333333334 120.8333333333333zM208.3383333333334 140.2778333333333C186.95 140.2778333333333 169.45 122.7783333333333 169.45 101.3883333333333C169.45 80 186.95 62.5 208.3383333333334 62.5C229.7283333333334 62.5 247.2283333333334 80 247.2283333333334 101.3883333333333C247.2283333333334 122.7783333333333 229.7283333333334 140.2778333333333 208.3383333333334 140.2778333333333zM101.4001666666667 126.2466666666667L131.4001666666667 176.5433333333333L143.9128333333334 169.0801666666667L113.9128333333334 118.7833333333333L101.4001666666667 126.2466666666667zM202.245 126.2466666666667L172.245 176.5433333333333L159.733 169.0801666666667L189.7333333333334 118.7833333333333L202.245 126.2466666666667z" />
    <glyph glyph-name="export_outline"
      unicode="&#xF12C;"
      horiz-adv-x="300" d="M200 177.5V166.25L178.75 162.5C146.25 157.5 122.5 145 105 128.75C126.25 135 148.75 138.75 175 138.75H200V122.5L227.5 150L200 177.5zM175 237.5L262.5 150L175 62.5V113.75C112.5 113.75 68.75 93.75 37.5 50C50 112.5 87.5 175 175 187.5" />
    <glyph glyph-name="export"
      unicode="&#xF12D;"
      horiz-adv-x="300" d="M175 187.5V237.5L262.5 150L175 62.5V113.75C112.5 113.75 68.75 93.75 37.5 50C50 112.5 87.5 175 175 187.5z" />
    <glyph glyph-name="expand"
      unicode="&#xF12E;"
      horiz-adv-x="300" d="M262.5 237.5L135.9375 237.5L135.9375 208.333375L262.5 208.333375L262.5 237.5zM262.5 164.58375L178.125 164.58375L178.125 135.41625L262.5 135.41625L262.5 164.58375zM262.5 62.5L262.5 91.66625L135.9375 91.66625L135.9375 62.5L262.5 62.5zM37.5 202.35425L87.84375 150L37.5 97.64625L57.328125 77.08375L127.64125 150L57.328125 222.91675L37.5 202.35425z" />
    <glyph glyph-name="execute"
      unicode="&#xF12F;"
      horiz-adv-x="300" d="M87.375 162.5L37.5 112.5L87.375 62.5V100H175V125H87.375V162.5zM262.5 187.5L212.625 237.5V200H125V175H212.625V137.5L262.5 187.5z" />
    <glyph glyph-name="entity-user"
      unicode="&#xF130;"
      horiz-adv-x="300" d="M151.58125 161.3925C134.60625 161.3925 120.7175 166.6575 109.915 177.188125C99.1125 187.718625 93.711375 201.25775 93.711375 217.805625C93.711375 234.3535 99.1125 247.892625 109.915 258.4231250000001C120.7175 268.9535 134.60625 274.21875 151.58125 274.21875C168.5575 274.21875 182.44625 268.9535 193.24875 258.4231250000001C204.05125 247.892625 209.4525 234.3535 209.4525 217.805625C209.4525 201.25775 204.05125 187.718625 193.24875 177.188125C182.44625 166.6575 168.5575 161.3925 151.58125 161.3925V161.3925zM28.125 40.66875V76.02125C28.125 85.54875 30.568375 93.69625 35.45525 100.46625C40.342 107.23625 46.6435 112.37625 54.3595 115.88625C71.592 123.4075 88.11725 129.04875 103.935125 132.81C119.753 136.57125 135.635 138.45125 151.58125 138.45125C167.5275 138.45125 183.34625 136.5075 199.035 132.62125C214.725 128.735 231.1850000000001 123.1575 248.4175 115.88625C256.39125 112.37625 262.82125 107.23625 267.7075 100.46625C272.5950000000001 93.69625 275.03875 85.54875 275.03875 76.02125V40.66875H28.125zM51.273125 63.23375H251.89V76.02125C251.89 80.0325 250.66875 83.85625 248.225 87.49125C245.7812500000001 91.12625 242.76 93.8225 239.15875 95.5775C222.6975 103.35 207.65125 108.6775 194.02 111.56125C180.38875 114.44375 166.2425 115.88625 151.58125 115.88625C136.92125 115.88625 122.6465 114.44375 108.757625 111.56125C94.86875 108.6775 79.8225 103.35 63.61875 95.5775C60.018 93.8225 57.060125 91.12625 54.745375 87.49125C52.4305 83.85625 51.273125 80.0325 51.273125 76.02125V63.23375zM151.58125 183.95775C161.6125 183.95775 169.9075 187.1545 176.46625 193.548C183.025 199.9415 186.30375 208.027375 186.30375 217.805625C186.30375 227.583875 183.025 235.66975 176.46625 242.06325C169.9075 248.45675 161.6125 251.6535 151.58125 251.6535C141.55125 251.6535 133.25625 248.45675 126.6975 242.06325C120.13875 235.66975 116.8595 227.583875 116.8595 217.805625C116.8595 208.027375 120.13875 199.9415 126.6975 193.548C133.25625 187.1545 141.55125 183.95775 151.58125 183.95775z" />
    <glyph glyph-name="entity-url"
      unicode="&#xF131;"
      horiz-adv-x="300" d="M103.90625 40.6125C118.3541666666667 34.3708333333333 133.71875 31.25 150 31.25C166.4104166666667 31.25 181.8075 34.3708333333333 196.1908333333333 40.6125C210.5741666666667 46.8541666666666 223.1416666666667 55.3520833333333 233.8937500000001 66.10625C244.6479166666667 76.8583333333333 253.1458333333334 89.4583333333333 259.3875000000001 103.90625C265.6291666666667 118.3541666666667 268.75 133.71875 268.75 150C268.75 166.4104166666666 265.6291666666667 181.8070833333333 259.3875000000001 196.1904166666666C253.1458333333334 210.57375 244.6479166666667 223.1416666666667 233.8937500000001 233.89375C223.1416666666667 244.6479166666667 210.5741666666667 253.1458333333334 196.1908333333333 259.3875C181.8075 265.6291666666667 166.4104166666667 268.75 150 268.75C133.71875 268.75 118.3541666666667 265.6291666666667 103.90625 259.3875C89.4583333333333 253.1458333333334 76.8583333333334 244.6479166666667 66.10625 233.89375C55.3520833333333 223.1416666666667 46.8541666666667 210.57375 40.6125 196.1904166666666C34.3708333333333 181.8070833333333 31.25 166.4104166666666 31.25 150C31.25 133.71875 34.3708333333333 118.3541666666667 40.6125 103.90625C46.8541666666667 89.4583333333333 55.3520833333333 76.8583333333333 66.10625 66.10625C76.8583333333334 55.3520833333333 89.4583333333333 46.8541666666666 103.90625 40.6125zM166.10625 75.8654166666667C161.7479166666667 67.2595833333333 156.3791666666667 58.7258333333333 150 50.2654166666666C143.6208333333333 58.405 138.2929166666667 66.7779166666666 134.0158333333334 75.3841666666666C129.7366666666667 83.9904166666667 126.1458333333334 93.5583333333333 123.24375 104.0875H176.75625C174.0145833333334 93.8791666666666 170.4645833333333 84.4720833333333 166.10625 75.8654166666667zM112.8845833333334 77.15C116.6991666666667 68.39375 121.0020833333334 60.5779166666667 125.79375 53.7029166666667C111.8041666666667 56.6508333333333 99.25625 62.5395833333333 88.15 71.36875C77.04375 80.2 68.1895833333334 91.10625 61.5875 104.0875H103.9908333333333C106.1054166666667 94.8875 109.07 85.9083333333333 112.8845833333334 77.15zM211.85 71.36875C200.74375 62.5395833333333 188.1958333333334 56.6508333333333 174.20625 53.7029166666667C178.5979166666667 60.4966666666666 182.7 68.2729166666667 186.5125 77.03125C190.3270833333334 85.7895833333333 193.4929166666667 94.8083333333333 196.0095833333333 104.0875H238.4125C231.8104166666667 91.10625 222.9562500000001 80.2 211.85 71.36875zM100.19375 122.8375H53.725C52.5229166666667 127.0833333333333 51.6020833333333 131.4979166666667 50.9625 136.08125C50.3208333333333 140.6645833333333 50 145.3041666666667 50 150C50 154.6958333333333 50.3208333333333 159.3354166666667 50.9625 163.91875C51.6020833333333 168.5020833333333 52.5229166666667 172.9166666666667 53.725 177.1625L245.8333333333334 177.1645833333333L246.2750000000001 177.1625C247.4770833333334 172.9166666666667 248.3979166666667 168.5020833333333 249.0375 163.91875C249.6791666666667 159.3354166666667 250.0000000000001 154.6958333333333 250.0000000000001 150C250.0000000000001 145.3041666666667 249.6791666666667 140.6645833333333 249.0375 136.08125C248.3979166666667 131.4979166666667 247.4770833333334 127.0833333333333 246.2750000000001 122.8375H199.80625C199.8070833333334 122.8420833333333 199.8079166666667 122.8470833333333 199.80875 122.8516666666667H181.0616666666667C181.0608333333333 122.8470833333333 181.06 122.8420833333333 181.0595833333334 122.8375H118.9404166666667C118.94 122.8420833333333 118.9391666666667 122.8470833333333 118.9383333333334 122.8516666666667H100.19125C100.1920833333333 122.8470833333333 100.1929166666667 122.8420833333333 100.19375 122.8375zM238.4125 195.9125H196.0095833333333C193.7345833333334 205.03125 190.7291666666667 213.9095833333333 186.99375 222.5470833333333C183.2604166666667 231.1866666666667 178.9979166666667 239.14375 174.20625 246.41875C188.5166666666667 243.2291666666667 201.125 237.3 212.03125 228.63125C222.9375 219.9604166666667 231.73125 209.0541666666667 238.4125 195.9125zM176.75625 195.9125H123.24375C126.1458333333334 206.3625 129.7958333333334 215.9904166666667 134.19375 224.7966666666667C138.59375 233.6029166666667 143.8625 241.9158333333333 150 249.7345833333333C156.1375 241.9158333333333 161.40625 233.6029166666667 165.80625 224.7966666666667C170.2041666666667 215.9904166666667 173.8541666666667 206.3625 176.75625 195.9125zM103.9908333333333 195.9125H61.5875C68.26875 208.975 77.0429166666667 219.8604166666667 87.9095833333333 228.56875C98.77375 237.2791666666667 111.4020833333333 243.2291666666667 125.79375 246.41875C121.0020833333334 239.14375 116.7395833333333 231.1866666666667 113.00625 222.5470833333333C109.2708333333333 213.9095833333333 106.2654166666667 205.03125 103.9908333333333 195.9125zM106.2154166666667 131.3666666666667C102.9154166666667 131.3666666666667 99.99875 132.0166666666667 97.4654166666667 133.3166666666667C94.9654166666667 134.6166666666667 92.99875 136.4 91.5654166666667 138.6666666666667C90.1654166666667 140.9333333333333 89.4654166666667 143.5166666666667 89.4654166666667 146.4166666666667V166.6666666666667H99.4654166666667V146.7666666666667C99.4654166666667 145.4333333333333 99.74875 144.25 100.3154166666667 143.2166666666667C100.9154166666667 142.1833333333333 101.7154166666667 141.3666666666667 102.7154166666667 140.7666666666667C103.74875 140.2 104.9154166666667 139.9166666666667 106.2154166666667 139.9166666666667C107.6154166666667 139.9166666666667 108.8320833333334 140.2 109.8654166666667 140.7666666666667C110.89875 141.3666666666667 111.7154166666667 142.1833333333333 112.3154166666667 143.2166666666667C112.94875 144.25 113.2654166666667 145.4333333333333 113.2654166666667 146.7666666666667V166.6666666666667H122.9654166666667V146.4166666666667C122.9654166666667 143.5166666666667 122.24875 140.9333333333333 120.8154166666667 138.6666666666667C119.4154166666667 136.4 117.4654166666667 134.6166666666667 114.9654166666667 133.3166666666667C112.4654166666667 132.0166666666667 109.54875 131.3666666666667 106.2154166666667 131.3666666666667zM139.2408333333334 131.6666666666667V166.6666666666667H156.9908333333334C159.6575 166.6666666666667 161.9575 166.2 163.8908333333333 165.2666666666667C165.8575 164.3333333333333 167.3575 163.0166666666667 168.3908333333334 161.3166666666667C169.4575 159.65 169.9908333333334 157.6833333333333 169.9908333333334 155.4166666666667C169.9908333333334 153.0833333333334 169.4408333333333 151.0166666666667 168.3408333333334 149.2166666666667C167.2408333333334 147.45 165.7075 146.05 163.7408333333334 145.0166666666667C161.8075 143.9833333333333 159.6241666666667 143.4666666666667 157.1908333333333 143.4666666666667H148.5408333333334V131.6666666666667H139.2408333333334zM160.4908333333334 131.6666666666667L150.3908333333334 147.4666666666667L160.6408333333334 148.7166666666667L171.7408333333334 131.6666666666667H160.4908333333334zM148.5408333333334 150.5666666666667H155.9408333333334C156.8075 150.5666666666667 157.5575 150.7333333333333 158.1908333333334 151.0666666666667C158.8241666666667 151.4 159.3241666666667 151.8833333333333 159.6908333333334 152.5166666666667C160.0575 153.15 160.2408333333334 153.9 160.2408333333334 154.7666666666667C160.2408333333334 155.6 160.0408333333333 156.3 159.6408333333334 156.8666666666667C159.2741666666667 157.4666666666667 158.7408333333334 157.9166666666667 158.0408333333334 158.2166666666667C157.3741666666667 158.55 156.5575 158.7166666666667 155.5908333333333 158.7166666666667H148.5408333333334V150.5666666666667zM185.4325 131.6666666666667V166.6666666666667H195.3325000000001V140.2166666666667H213.3825V131.6666666666667H185.4325z" />
    <glyph glyph-name="entity-task-action"
      unicode="&#xF132;"
      horiz-adv-x="381.8181818181818" d="M73.6273636363636 15.4554545454546L9.0820363636364 79.9996363636364L28.173 99.0905454545455L73.6273636363636 54.0905454545455L154.9911818181819 135.4540909090909L174.0820909090909 115.9088181818182L73.6273636363636 15.4554545454546zM73.6273636363636 160.9088181818182L9.0820363636364 225.4540909090909L28.173 244.545L73.6273636363636 199.545L154.9911818181819 280.9087636363637L174.0820909090909 261.3632727272727L73.6273636363636 160.9088181818182zM209.082 49.9996363636364V77.2723636363637H372.7172727272727V49.9996363636364H209.082zM209.082 195.4540909090909V222.7268181818182H372.7172727272727V195.4540909090909H209.082z" />
    <glyph glyph-name="entity-service"
      unicode="&#xF133;"
      horiz-adv-x="300" d="M150 12.5L112.5 50H56.25C51.25 50 46.875 51.9275 43.125 55.78125C39.375 59.635 37.5 63.95875 37.5 68.75V256.25C37.5 261.25 39.375 265.625 43.125 269.375C46.875 273.125 51.25 275 56.25 275H243.75C248.54125 275 252.865 273.125 256.71875 269.375C260.5725 265.625 262.5 261.25 262.5 256.25V68.75C262.5 63.95875 260.5725 59.635 256.71875 55.78125C252.865 51.9275 248.54125 50 243.75 50H187.5L150 12.5zM56.25 68.75H120L150 38.75L180 68.75H243.75V256.25H56.25V68.75zM167.8125 144.0625L207.8125 161.5625L167.8125 179.0625L150.3125 219.0625L132.5 179.0625L92.8125 161.5625L132.5 144.0625L150.3125 104.0625L167.8125 144.0625z" />
    <glyph glyph-name="entity-sensor"
      unicode="&#xF134;"
      horiz-adv-x="300" d="M43.75 24.60875C38.75 24.60875 34.375 26.48375 30.625 30.23375C26.875 33.98375 25 38.35875 25 43.35875V97.10875H43.75V43.35875H97.5V24.60875H43.75zM25 202.109375V255.859375C25 260.859375 26.875 265.234375 30.625 268.984375C34.375 272.734375 38.75 274.609375 43.75 274.609375H97.5V255.859375H43.75V202.109375H25zM140.625 63.04625C120.208375 65.33875 102.8125 73.67125 88.4375 88.04625C74.0625 102.42125 65.729125 119.8175 63.4375 140.23375H81.875C83.958375 124.8175 90.46875 111.6925 101.40625 100.85875C112.34375 90.02625 125.41625 83.5675 140.625 81.48375V63.04625zM63.4375 158.98375C65.729125 179.401 74.0625 196.796875 88.4375 211.171875C102.8125 225.546875 120.208375 233.88025 140.625 236.171875V217.734375C125.20875 215.651 112.083375 209.19275 101.25 198.359375C90.416625 187.526 83.958375 174.40125 81.875 158.98375H63.4375zM150 127.73375C143.95875 127.73375 138.8025 129.87 134.53125 134.14C130.26 138.41125 128.125 143.5675 128.125 149.60875C128.125 155.65125 130.26 160.8075 134.53125 165.0775C138.8025 169.34875 143.95875 171.48375 150 171.48375C156.04125 171.48375 161.1975 169.34875 165.46875 165.0775C169.74 160.8075 171.875 155.65125 171.875 149.60875C171.875 143.5675 169.74 138.41125 165.46875 134.14C161.1975 129.87 156.04125 127.73375 150 127.73375zM159.375 63.04625V81.48375C174.79125 83.5675 187.91625 90.0775 198.75 101.015C209.58375 111.9525 216.04125 125.02625 218.125 140.23375H236.5625C234.27125 119.8175 225.9375 102.42125 211.5625 88.04625C197.1875 73.67125 179.79125 65.33875 159.375 63.04625zM218.125 158.98375C216.04125 174.40125 209.58375 187.526 198.75 198.359375C187.91625 209.19275 174.79125 215.651 159.375 217.734375V236.171875C179.79125 233.88025 197.1875 225.546875 211.5625 211.171875C225.9375 196.796875 234.27125 179.401 236.5625 158.98375H218.125zM202.5 24.60875V43.35875H256.25V97.10875H275V43.35875C275 38.35875 273.125 33.98375 269.375 30.23375C265.625 26.48375 261.25 24.60875 256.25 24.60875H202.5zM256.25 202.109375V255.859375H202.5V274.609375H256.25C261.25 274.609375 265.625 272.734375 269.375 268.984375C273.125 265.234375 275 260.859375 275 255.859375V202.109375H256.25z" />
    <glyph glyph-name="entity-script"
      unicode="&#xF135;"
      horiz-adv-x="300" d="M25 0C18.333325 0 12.5 2.5 7.5 7.5C2.5 12.5 0 18.3325 0 25V275C0 281.666675 2.5 287.5 7.5 292.5C12.5 297.5 18.333325 300 25 300H217.5L300 217.5V25C300 18.3325 297.5 12.5 292.5 7.5C287.5 2.5 281.6675 0 275 0H25zM25 25H275V203.57125H203.75V275H25V25zM66.25 71.25H233.75V96.25H66.25V71.25zM66.25 203.75H150V228.75H66.25V203.75zM66.25 137.5H233.75V162.5H66.25V137.5z" />
    <glyph glyph-name="entity-scheduled-task"
      unicode="&#xF136;"
      horiz-adv-x="300" d="M56.25 25C51.25 25 46.875 26.875 43.125 30.625C39.375 34.375 37.5 38.75 37.5 43.75V237.5C37.5 242.5 39.375 246.875 43.125 250.625C46.875 254.375 51.25 256.25 56.25 256.25H76.5625V275H96.875V256.25H203.125V275H223.4375V256.25H243.75C248.75 256.25 253.125 254.375 256.875 250.625C260.625 246.875 262.5 242.5 262.5 237.5V143.4375H243.75V178.125H56.25V43.75H155.9375V25H56.25zM277.8125 93.4375L255.625 115.625L264.6875 124.6875C266.41875 126.35375 268.6225 127.1875 271.29875 127.1875C273.975 127.1875 276.14625 126.35375 277.8125 124.6875L286.875 115.625C288.54125 113.89375 289.375 111.69 289.375 109.01375C289.375 106.3375 288.54125 104.16625 286.875 102.5L277.8125 93.4375zM174.6875 12.5V34.6875L242.1875 102.1875L264.375 80L196.875 12.5H174.6875zM56.25 196.875H243.75V237.5H56.25V196.875z" />
    <glyph glyph-name="entity-registry-key"
      unicode="&#xF137;"
      horiz-adv-x="300" d="M80.907625 102.415L128.48125 149.98875L80.907625 197.56275L65.6285 182.283625L97.923 149.98875L65.6285 117.695L80.907625 102.415zM45.835125 24.97875C40.279125 24.97875 35.417625 27.06125 31.2505 31.22875C27.0835 35.39625 25 40.2575 25 45.81375V254.164875C25 259.720875 27.0835 264.582375 31.2505 268.7495C35.417625 272.9165 40.279125 275 45.835125 275H254.18625C259.7425 275 264.60375 272.9165 268.77125 268.7495C272.9387500000001 264.582375 275.02125 259.720875 275.02125 254.164875V45.81375C275.02125 40.2575 272.9387500000001 35.39625 268.77125 31.22875C264.60375 27.06125 259.7425 24.97875 254.18625 24.97875H45.835125zM45.835125 45.81375H254.18625V254.164875H45.835125V45.81375zM146.395 110.555C146.96125 108.29625 147.66125 107.16625 148.49625 107.16625H229.1C229.93625 107.16625 230.63625 108.27375 231.20125 110.4875C231.76625 112.70125 232.04875 115.4775 232.04875 118.8175C232.04875 122.1575 231.76625 124.9575 231.20125 127.2175C230.63625 129.47625 229.93625 130.60625 229.1 130.60625H148.49625C147.66125 130.60625 146.96125 129.49875 146.395 127.285C145.83 125.07125 145.5475 122.295 145.5475 118.955C145.5475 115.615 145.83 112.815 146.395 110.555z" />
    <glyph glyph-name="entity-process"
      unicode="&#xF138;"
      horiz-adv-x="300" d="M31.120625 55.18875C34.854 51.455 39.2095 49.58875 44.18725 49.58875H149.96375V68.255H44.18725V203.898125H255.74125V161.5875H274.4075000000001V230.031125C274.4075000000001 235.008875 272.54125 239.364375 268.8075 243.09775C265.07375 246.831 260.71875 248.697625 255.74125 248.697625H44.18725C39.2095 248.697625 34.854 246.831 31.120625 243.09775C27.387375 239.364375 25.52075 235.008875 25.52075 230.031125V68.255C25.52075 63.2775 27.387375 58.92125 31.120625 55.18875zM260.2575 117.29L274.91125 130.14375L262.0575 152.38125L243.41875 146.0825C239.30625 149.55375 234.67875 152.2525 229.5375 154.18125L225.68125 173.46125H199.9725L196.11625 154.30875C190.975 152.38125 186.3475 149.68125 182.23375 146.21125L163.59625 152.51L150.7425 130.2725L165.395 117.41875C164.3675 110.99125 164.3675 107.64875 165.395 101.2225L150.7425 88.36875L163.59625 66.13125L182.23375 72.43C186.3475 68.95875 190.975 66.26 196.11625 64.33125L199.9725 44.92125H225.68125L229.5375 64.07375C234.67875 66.0025 239.30625 68.70125 243.41875 72.1725L262.0575 65.87375L274.91125 88.11125L260.2575 100.965C261.28625 107.52125 261.28625 110.8625 260.2575 117.29zM212.8275 83.4875C198.68875 83.4875 187.12 95.05625 187.12 109.195C187.12 123.335 198.68875 134.9025 212.8275 134.9025C226.9675 134.9025 238.53625 123.335 238.53625 109.195C238.53625 95.05625 226.9675 83.4875 212.8275 83.4875z" />
    <glyph glyph-name="entity-mac-address"
      unicode="&#xF139;"
      horiz-adv-x="300" d="M30.564375 79.505C33.92675 76.1425 37.849625 74.46125 42.332875 74.46125H137.6025V91.27375H42.332875V219.606375H232.87125V175.334125H249.68375V220.16675C249.68375 224.65 248.0025 228.572875 244.64 231.93525C241.2775 235.29775 237.355 236.978875 232.87125 236.978875H42.332875C37.849625 236.978875 33.92675 235.29775 30.564375 231.93525C27.201875 228.572875 25.52075 224.65 25.52075 220.16675V91.27375C25.52075 86.79 27.201875 82.8675 30.564375 79.505zM243.7975 81.575H250.3525L274.94875 56.89625L262.585 44.53125L237.905 69.1275V75.6825L235.665 78.00625C226.205 69.87375 213.92375 64.97875 200.56375 64.97875C170.7725 64.97875 146.625 89.12625 146.625 118.9175C146.625 148.7075 170.7725 172.85625 200.56375 172.85625C230.35375 172.85625 254.5025 148.7075 254.5025 118.9175C254.5025 105.55625 249.60625 93.275 241.47375 83.815L243.7975 81.575zM163.22125 118.095C163.22125 96.97875 180.2675 79.93125 201.385 79.93125C222.5025 79.93125 239.54875 96.97875 239.54875 118.095C239.54875 139.2125 222.5025 156.25875 201.385 156.25875C180.2675 156.25875 163.22125 139.2125 163.22125 118.095zM160.57875 122.2H173.01875V116.43H160.57875V122.2zM191.42625 118.345V127.115C191.42625 127.65375 191.44125 128.23 191.4725 128.84625C191.51875 129.47625 191.58 130.13 191.65625 130.8075L182.7875 118.345H191.42625zM201.10125 118.345V114.33C201.10125 113.97625 200.97875 113.66875 200.7325 113.40625C200.5025 113.145 200.165 113.015 199.71875 113.015H197.64625V105.28375H191.42625V113.015H177.92625C177.48125 113.015 177.07375 113.1525 176.705 113.43C176.3525 113.70625 176.13 114.0525 176.0375 114.46875L175.3 117.99875L190.8275 138.9075H197.64625V118.345H201.10125zM218.1525 118.345V127.115C218.1525 127.65375 218.1675 128.23 218.19875 128.84625C218.24375 129.47625 218.30625 130.13 218.3825 130.8075L209.51375 118.345H218.1525zM227.8275 118.345V114.33C227.8275 113.97625 227.705 113.66875 227.45875 113.40625C227.22875 113.145 226.89125 113.015 226.445 113.015H224.3725V105.28375H218.1525V113.015H204.6525C204.2075 113.015 203.8 113.1525 203.43125 113.43C203.07875 113.70625 202.85625 114.0525 202.76375 114.46875L202.02625 117.99875L217.55375 138.9075H224.3725V118.345H227.8275zM70.321375 161.6175C70.321375 158.31 70.038125 155.445 69.4715 153.02125C68.905 150.5975 68.1175 148.59 67.10875 146.99625C66.113875 145.40375 64.925625 144.2175 63.543875 143.43875C62.175875 142.66 60.6905 142.27 59.08775 142.27C57.484875 142.27 55.9995 142.66 54.631625 143.43875C53.2775 144.2175 52.103 145.40375 51.108125 146.99625C50.11325 148.59 49.332625 150.5975 48.766125 153.02125C48.213375 155.445 47.937 158.31 47.937 161.6175C47.937 164.92375 48.213375 167.78875 48.766125 170.2125C49.332625 172.63625 50.11325 174.645 51.108125 176.237875C52.103 177.830625 53.2775 179.008 54.631625 179.76975C55.9995 180.54875 57.484875 180.938375 59.08775 180.938375C60.6905 180.938375 62.175875 180.54875 63.543875 179.76975C64.925625 179.008 66.113875 177.830625 67.10875 176.237875C68.1175 174.645 68.905 172.63625 69.4715 170.2125C70.038125 167.78875 70.321375 164.92375 70.321375 161.6175zM63.689 161.6175C63.689 164.23125 63.557625 166.37 63.295125 168.03125C63.032625 169.71125 62.68025 171.02625 62.238125 171.97875C61.80975 172.93125 61.31925 173.58 60.7665 173.92625C60.213875 174.29 59.65425 174.4725 59.08775 174.4725C58.52125 174.4725 57.961625 174.29 57.408875 173.92625C56.87 173.58 56.386375 172.93125 55.958125 171.97875C55.5435 171.02625 55.205 169.71125 54.9425 168.03125C54.69375 166.37 54.569375 164.23125 54.569375 161.6175C54.569375 158.98625 54.69375 156.83875 54.9425 155.1775C55.205 153.515 55.5435 152.19875 55.958125 151.23C56.386375 150.2775 56.87 149.62 57.408875 149.25625C57.961625 148.91 58.52125 148.73625 59.08775 148.73625C59.65425 148.73625 60.213875 148.91 60.7665 149.25625C61.31925 149.62 61.80975 150.2775 62.238125 151.23C62.68025 152.19875 63.032625 153.515 63.295125 155.1775C63.557625 156.83875 63.689 158.98625 63.689 161.6175zM94.367 161.6175C94.367 158.31 94.08375 155.445 93.51725 153.02125C92.95075 150.5975 92.163125 148.59 91.154375 146.99625C90.159625 145.40375 88.97125 144.2175 87.5895 143.43875C86.221625 142.66 84.73625 142.27 83.133375 142.27C81.5305 142.27 80.045125 142.66 78.67725 143.43875C77.323125 144.2175 76.148625 145.40375 75.15375 146.99625C74.158875 148.59 73.37825 150.5975 72.81175 153.02125C72.259 155.445 71.982625 158.31 71.982625 161.6175C71.982625 164.92375 72.259 167.78875 72.81175 170.2125C73.37825 172.63625 74.158875 174.645 75.15375 176.237875C76.148625 177.830625 77.323125 179.008 78.67725 179.76975C80.045125 180.54875 81.5305 180.938375 83.133375 180.938375C84.73625 180.938375 86.221625 180.54875 87.5895 179.76975C88.97125 179.008 90.159625 177.830625 91.154375 176.237875C92.163125 174.645 92.95075 172.63625 93.51725 170.2125C94.08375 167.78875 94.367 164.92375 94.367 161.6175zM87.734625 161.6175C87.734625 164.23125 87.603375 166.37 87.34075 168.03125C87.07825 169.71125 86.725875 171.02625 86.28375 171.97875C85.855375 172.93125 85.364875 173.58 84.81225 173.92625C84.2595 174.29 83.699875 174.4725 83.133375 174.4725C82.566875 174.4725 82.00725 174.29 81.4545 173.92625C80.915625 173.58 80.432 172.93125 80.00375 171.97875C79.58925 171.02625 79.250625 169.71125 78.988125 168.03125C78.739375 166.37 78.615 164.23125 78.615 161.6175C78.615 158.98625 78.739375 156.83875 78.988125 155.1775C79.250625 153.515 79.58925 152.19875 80.00375 151.23C80.432 150.2775 80.915625 149.62 81.4545 149.25625C82.00725 148.91 82.566875 148.73625 83.133375 148.73625C83.699875 148.73625 84.2595 148.91 84.81225 149.25625C85.364875 149.62 85.855375 150.2775 86.28375 151.23C86.725875 152.19875 87.07825 153.515 87.34075 155.1775C87.603375 156.83875 87.734625 158.98625 87.734625 161.6175zM97.35475 161.72125H108.547V155.22875H97.35475V161.72125zM132.48625 148.5025V142.68625H115.284V148.5025H121.08725V167.59C121.08725 168.075 121.09425 168.56 121.108 169.045C121.121875 169.54625 121.142625 170.04875 121.17025 170.55125L117.729625 166.9675C117.425625 166.6725 117.121625 166.49125 116.81775 166.42125C116.5275 166.37 116.251125 166.37 115.988625 166.42125C115.726125 166.49125 115.49125 166.60375 115.284 166.75875C115.07675 166.9325 114.92475 167.105 114.828 167.27875L112.79675 170.655L122.2065 180.54875H127.5125V148.5025H132.48625zM154.9775 149.9575C155.66875 149.9575 156.215 149.715 156.615 149.23C157.01625 148.7625 157.21625 148.13875 157.21625 147.36V142.68625H135.9925V145.2825C135.9925 145.785 136.075 146.32125 136.24125 146.8925C136.4075 147.46375 136.6975 147.98375 137.1125 148.45125L145.8175 159.43625C146.5625 160.37125 147.2125 161.2625 147.765 162.11125C148.3175 162.95875 148.77375 163.79 149.1325 164.60375C149.4925 165.435 149.76125 166.2575 149.94125 167.07125C150.12125 167.90125 150.21125 168.77625 150.21125 169.69375C150.21125 171.2 149.92125 172.35125 149.34 173.1475C148.77375 173.96125 147.90375 174.3675 146.72875 174.3675C145.775 174.3675 144.9675 174.0475 144.30375 173.4075C143.655 172.78375 143.205 172.005 142.95625 171.07C142.66625 170.1175 142.28625 169.48625 141.81625 169.17375C141.3475 168.8625 140.67625 168.79375 139.80625 168.96625L136.4075 169.72C136.62875 171.60625 137.05 173.25125 137.67125 174.65375C138.3075 176.056125 139.0875 177.22475 140.01375 178.159625C140.95375 179.0945 142.02375 179.787 143.22625 180.237125C144.42875 180.704625 145.72 180.938375 147.1025 180.938375C148.59375 180.938375 149.935 180.661375 151.1225 180.10725C152.325 179.570625 153.3475 178.8175 154.19 177.848C155.03375 176.8785 155.67625 175.7185 156.1175 174.3675C156.57375 173.035 156.80125 171.56375 156.80125 169.95375C156.80125 168.56875 156.6425 167.2875 156.325 166.11C156.02125 164.9325 155.6 163.8075 155.06125 162.73375C154.5225 161.6775 153.89375 160.6475 153.175 159.64375C152.47 158.65625 151.7175 157.6525 150.915 156.63125L145.00875 149.04875C145.76875 149.3425 146.52125 149.5675 147.2675 149.72375C148.01375 149.87875 148.705 149.9575 149.34 149.9575H154.9775z" />
    <glyph glyph-name="entity-ip-address"
      unicode="&#xF13A;"
      horiz-adv-x="300" d="M150.58625 93.48C172.905 110.87125 189.75125 127.58875 201.125 143.63375C212.49875 159.67875 218.18625 174.63625 218.18625 188.507875C218.18625 200.722625 215.87875 211.07425 211.265 219.5625C206.65125 228.05075 200.96375 234.986375 194.20375 240.369125C187.44375 245.752 180.09375 249.63375 172.15375 252.014625C164.21375 254.3955 157.02375 255.585875 150.58625 255.585875C144.1475 255.585875 136.95875 254.3955 129.01875 252.014625C121.078125 249.63375 113.728 245.752 106.968 240.369125C100.208 234.986375 94.521 228.05075 89.907 219.5625C85.293125 211.07425 82.986125 200.722625 82.986125 188.507875C82.986125 174.63625 88.673125 159.67875 100.047 143.63375C111.421 127.58875 128.2675 110.87125 150.58625 93.48zM150.58625 69.87875C121.185375 91.2025 99.349625 111.59625 85.0785 131.05625C70.807375 150.5175 63.671875 169.6675 63.671875 188.507875C63.671875 202.586 66.30075 214.956 71.5585 225.618125C76.81625 236.28025 83.629875 245.234375 91.999375 252.4805C100.368875 259.7265 109.704125 265.161125 120.005125 268.784125C130.30625 272.40725 140.5 274.21875 150.58625 274.21875C160.6725 274.21875 170.86625 272.40725 181.16625 268.784125C191.4675 265.161125 200.8025 259.7265 209.1725 252.4805C217.5425 245.234375 224.355 236.28025 229.61375 225.618125C234.87125 214.956 237.5 202.586 237.5 188.507875C237.5 169.6675 230.365 150.5175 216.09375 131.05625C201.8225 111.59625 179.98625 91.2025 150.58625 69.87875zM150.58625 168.6325C156.81 168.6325 162.12125 170.755 166.52 174.99875C170.92 179.243125 173.11875 184.36725 173.11875 190.371125C173.11875 196.375 170.92 201.499 166.52 205.743125C162.12125 209.98725 156.81 212.109375 150.58625 212.109375C144.3625 212.109375 139.05125 209.98725 134.65125 205.743125C130.2525 201.499 128.0525 196.375 128.0525 190.371125C128.0525 184.36725 130.2525 179.243125 134.65125 174.99875C139.05125 170.755 144.3625 168.6325 150.58625 168.6325zM63.671875 25.78125V44.41375H237.5V25.78125H63.671875z" />
    <glyph glyph-name="entity-host"
      unicode="&#xF13B;"
      horiz-adv-x="300" d="M104.36 35.9375V54.6225H131.14125V85.76375H43.9455C38.96275 85.76375 34.603 87.6325 30.866 91.36875C27.129 95.10625 25.2605 99.46625 25.2605 104.44875V241.471375C25.2605 246.454 27.129 250.81375 30.866 254.55075C34.603 258.28775 38.96275 260.15625 43.9455 260.15625H255.7075C260.69 260.15625 265.05 258.28775 268.7875 254.55075C272.52375 250.81375 274.3925 246.454 274.3925 241.471375V104.44875C274.3925 99.46625 272.52375 95.10625 268.7875 91.36875C265.05 87.6325 260.69 85.76375 255.7075 85.76375H168.51125V54.6225H195.2925V35.9375H104.36zM43.9455 104.44875H255.7075V241.471375H43.9455V104.44875zM43.9455 104.44875V241.471375V104.44875z" />
    <glyph glyph-name="entity-graph"
      unicode="&#xF13C;"
      horiz-adv-x="300" d="M75 112.5C88.75 112.5 100 101.25 100 87.5C100 73.75 88.75 62.5 75 62.5C61.25 62.5 50 73.75 50 87.5C50 101.25 61.25 112.5 75 112.5zM75 137.5C47.5 137.5 25 115 25 87.5C25 60 47.5 37.5 75 37.5C102.5 37.5 125 60 125 87.5C125 100.93125 119.632375 113.17 110.936375 122.1775L136.15625 164.46125C140.5575 163.185 145.2025 162.5 150 162.5C156.235 162.5 162.2125 163.65625 167.72875 165.765L192.035 125.015C181.60625 115.83375 175 102.40125 175 87.5C175 60 197.5 37.5 225 37.5C252.5 37.5 275 60 275 87.5C275 115 252.5 137.5 225 137.5C219.095 137.5 213.42125 136.4625 208.15125 134.56125L183.66625 175.61325C193.68875 184.773 200 197.93525 200 212.5C200 240 177.5 262.5 150 262.5C122.5 262.5 100 240 100 212.5C100 196.4845 107.631375 182.16475 119.43725 172.9975L95.599875 133.0325C89.309875 135.9 82.33275 137.5 75 137.5zM150 237.5C163.75 237.5 175 226.25 175 212.5C175 198.75 163.75 187.5 150 187.5C136.25 187.5 125 198.75 125 212.5C125 226.25 136.25 237.5 150 237.5zM225 112.5C238.7500000000001 112.5 250 101.25 250 87.5C250 73.75 238.7500000000001 62.5 225 62.5C211.25 62.5 200 73.75 200 87.5C200 101.25 211.25 112.5 225 112.5z" />
    <glyph glyph-name="entity-generic"
      unicode="&#xF13D;"
      horiz-adv-x="184.6153846153846" d="M73.4554615384615 103.8461538461538C73.7118461538462 122.3076923076923 75.8273076923077 135.7691538461539 79.8016153846154 144.2307692307692C83.7761538461539 152.6923846153846 91.2759230769231 161.9231538461539 102.3016153846154 171.9230769230769C113.0709230769231 181.6666153846154 121.3400769230769 190.7051538461539 127.1093076923077 199.0384615384616C132.8785384615385 207.3717692307693 135.7631538461539 216.282 135.7631538461539 225.7691538461539C135.7631538461539 237.3076153846154 131.9171538461539 246.923076923077 124.2246923076923 254.6153076923077C116.5324615384615 262.3077692307692 105.7631538461539 266.1537692307693 91.917 266.1537692307693C78.5836153846154 266.1537692307693 68.3273076923077 262.3716923076923 61.1478461538462 254.8077692307692C53.9683846153846 247.2436153846154 48.7119230769231 239.3589230769231 45.3786923076923 231.1539230769231L13.0709076923077 245.3845384615385C18.7119461538462 260.5128461538462 28.2632307692308 273.3973846153846 41.7246923076923 284.0384538461539C55.1863846153846 294.679476923077 71.9171538461539 300 91.917 300C117.558 300 137.3016923076923 292.8846230769231 151.1478461538462 278.6538461538462C164.994 264.423 171.9170769230769 247.3077692307692 171.9170769230769 227.3076923076923C171.9170769230769 215.0000769230769 169.2888461538462 203.8460769230769 164.0323846153846 193.8461538461539C158.7759230769231 183.8462307692308 150.3786923076923 173.3333076923077 138.8402307692308 162.3076153846154C126.276 150.2563846153846 118.7118461538462 141.0256153846154 116.1477692307693 134.6153076923077C113.5836923076923 128.2052307692308 112.1734615384615 117.9486923076923 111.9170769230769 103.8461538461538H73.4554615384615zM91.917 7.6915384615385C84.4811538461539 7.6915384615385 78.135 10.32 72.8785384615385 15.5769230769231C67.6220769230769 20.8338461538461 64.9940769230769 27.18 64.9940769230769 34.6153846153846C64.9940769230769 42.0507692307692 67.6220769230769 48.3969230769231 72.8785384615385 53.6538461538461C78.135 58.9107692307692 84.4811538461539 61.5392307692308 91.917 61.5392307692308C99.3528461538462 61.5392307692308 105.6992307692308 58.9107692307692 110.9554615384615 53.6538461538461C116.2119230769231 48.3969230769231 118.8401538461539 42.0507692307692 118.8401538461539 34.6153846153846C118.8401538461539 27.18 116.2119230769231 20.8338461538461 110.9554615384615 15.5769230769231C105.6992307692308 10.32 99.3528461538462 7.6915384615385 91.917 7.6915384615385z" />
    <glyph glyph-name="entity-function"
      unicode="&#xF13E;"
      horiz-adv-x="300" d="M33.528625 39.0625C31.11225 39.0625 29.086625 39.91 27.452 41.60375C25.817375 43.29875 25 45.39875 25 47.9025C25 50.4075 25.817375 52.49 27.452 54.15C29.086625 55.81 31.11225 56.64 33.528625 56.64H266.6450000000001C269.06125 56.64 271.0875000000001 55.79375 272.72125 54.09875C274.35625 52.405 275.17375 50.305 275.17375 47.8C275.17375 45.295 274.35625 43.2125 272.72125 41.5525C271.0875000000001 39.8925 269.06125 39.0625 266.6450000000001 39.0625H33.528625zM53.428875 74.21875C48.88025 74.21875 44.900125 75.97625 41.48875 79.4925C38.07725 83.0075 36.3715 87.11 36.3715 91.7975V232.421875C36.3715 237.109375 38.07725 241.211 41.48875 244.726625C44.900125 248.24225 48.88025 250 53.428875 250H246.745C251.29375 250 255.27375 248.24225 258.685 244.726625C262.09625 241.211 263.8025 237.109375 263.8025 232.421875V91.7975C263.8025 87.11 262.09625 83.0075 258.685 79.4925C255.27375 75.97625 251.29375 74.21875 246.745 74.21875H53.428875zM53.428875 91.7975H246.745V232.421875H53.428875V91.7975zM119.31675 128.90625L125.07 149.65875H104.60075L106.607375 156.9825H127.07625L133.09625 178.955125H109.952L111.95875 186.27925H135.10375L140.7225 207.03125H148.615L142.99625 186.27925H167.21125L172.83 207.03125H180.7225L175.10375 186.27925H195.5725L193.56625 178.955125H173.0975L167.0775 156.9825H190.22125L188.215 149.65875H165.07L159.45125 128.90625H151.425L157.1775 149.65875H132.9625L127.34375 128.90625H119.31675zM134.96875 156.9825H159.18375L165.20375 178.955125H140.99L134.96875 156.9825zM138.995 209.375H151.61125L145.9925 188.623H165.485L171.10375 209.375H183.71875L178.1 188.623H198.57875L195.2875 176.611375H174.81875L170.0825 159.32625H193.2275L189.93625 147.315H166.7975L161.17875 126.5625H148.41L154.1625 147.315H134.68875L129.07 126.5625H116.30175L122.0545 147.315H101.595375L104.886375 159.32625H125.355L130.09125 176.611375H106.946625L110.237625 188.623H133.37625L138.995 209.375zM142.44875 204.6875L136.83 183.9355H113.679875L112.957375 181.298875H136.10125L128.7975 154.63875H108.3285L107.606125 152.0025H128.085L122.33175 131.25H125.6175L131.23625 152.0025H160.1925L154.44 131.25H157.725L163.34375 152.0025H186.49375L187.21625 154.63875H164.07125L171.37625 181.298875H191.845L192.5675 183.9355H172.10875L177.7275 204.6875H174.55625L168.9375 183.9355H140L145.62 204.6875H142.44875zM139.26875 181.298875H168.21L160.905 154.63875H131.96375L139.26875 181.298875zM142.71125 176.611375L137.975 159.32625H157.4625L162.19875 176.611375H142.71125z" />
    <glyph glyph-name="entity-filehash"
      unicode="&#xF13F;"
      horiz-adv-x="350" d="M55.03975 18.23L72.8905 92.936H9.375L15.602025 119.30325H79.11775L97.79875 198.40475H25.9805L32.2075 224.772H104.02575L121.4615 299.4789125H145.95425L128.51875 224.772H203.658L221.09375 299.4789125H245.58675L228.151 224.772H291.6675L285.44 198.40475H221.924L203.243 119.30325H275.06L268.835 92.936H197.016L179.58025 18.23H154.67225L172.523 92.936H97.3835L79.948 18.23H55.03975zM103.6105 119.30325H178.75L197.431 198.40475H122.29175L103.6105 119.30325zM258.2175 36.1275L232.0365 63.70775L215.3355 46.07L258.2175 0.9725L341.045 88.09175L324.3425 105.729L258.2175 36.1275z" />
    <glyph glyph-name="entity-file"
      unicode="&#xF140;"
      horiz-adv-x="300" d="M175.1175 274.609375H75.273375C68.653375 274.609375 62.304375 271.979625 57.623375 267.2985C52.94225 262.617375 50.312375 256.2685 50.312375 249.6485V49.96125C50.312375 43.34125 52.94225 36.9925 57.623375 32.31125C62.304375 27.63 68.653375 25 75.273375 25H225.03875C231.65875 25 238.0075 27.63 242.68875 32.31125C247.37 36.9925 250 43.34125 250 49.96125V199.726625L175.1175 274.609375zM230.655 44.4075H69.65725V255.20225H162.63625V187.246125H230.655V44.4075z" />
    <glyph glyph-name="entity-email"
      unicode="&#xF141;"
      horiz-adv-x="300" d="M273.8275 226.484125C273.8275 239.24575 262.67375 249.68725 249.04 249.68725H50.74025C37.107125 249.68725 25.95275 239.24575 25.95275 226.484125V87.265C25.95275 74.50375 37.107125 64.0625 50.74025 64.0625H249.04C262.67375 64.0625 273.8275 74.50375 273.8275 87.265V226.484125zM256.415 233.445L149.89 168.47625L43.365875 233.445H256.415zM256.415 80.305H43.365875V214.3025L149.89 145.27375L256.415 213.780375V80.305z" />
    </font>
</defs>
</svg>
